Завантажити та скачати торренти українською


Р. С. - Дискографія (3 альбоми) (2005-2012) [FLAC] | Hard Rock

Нові коментарі

Нова тема   Відповісти
Останній раз роздавалося Myfordownloads (2016-10-09)
Автор Повідомлення
Kitler 
Модератор програмного забезпечення


З нами з: 22.04.11
Востаннє: 08.12.16
Повідомлень: 591

2012-12-16 16:16  
Р. С. - Дискографія (3 альбоми) (2005-2012) [FLAC] | Hard Rock

Р. С. - Дискографія (3 альбоми) (2005-2012) [FLAC] | Hard Rock

Стиль: Hard Rock, Heavy Metal
Країна, місто: Україна, Київ
Сайти: Офіційний сайт
Видавець: Гурт
Виконавці:
Сергій Румянцев - вокал, гітара
Роман Сіржук - бас
Руслан Сушко - ударні
Альбоми:
2005 - Вічність
1. Вічність
2. Прометей
3. Сон
4. Мета
5. Пори року
6. Усе не так
7. У той час, коли...
8. Історія
Тривалість: 00:27:36
Бітрейт: 820кб/с
log
Exact Audio Copy V1.0 beta 3 from 29. August 2011

Отчёт EAC об извлечении, выполненном 14. декабря 2012, 21:45

Р. С. / Вічність

Дисковод: HL-DT-STDVDRAM GH24NS90 Adapter: 3 ID: 1

Режим чтения : Достоверность
Использование точного потока : Да
Отключение кэша аудио : Да
Использование указателей C2 : Нет

Коррекция смещения при чтении : 0
Способность читать области Lead-in и Lead-out : Нет
Заполнение пропущенных сэмплов тишиной : Да
Удаление блоков с тишиной в начале и конце : Exact Audio Copy V1.0 beta 3 from 29. August 2011

Отчёт EAC об извлечении, выполненном 14. декабря 2012, 22:15

Р. С. / Вічність

Дисковод: HL-DT-STDVDRAM GH24NS90 Adapter: 3 ID: 1

Режим чтения : Достоверность
Использование точного потока : Да
Отключение кэша аудио : Да
Использование указателей C2 : Нет

Коррекция смещения при чтении : 0
Способность читать области Lead-in и Lead-out : Нет
Заполнение пропущенных сэмплов тишиной : Да
Удаление блоков с тишиной в начале и конце : Нет
При вычислениях CRC использовались нулевые сэмплы : Да
Интерфейс : Встроенный Win32-интерфейс для Win NT/2000

Выходной формат : Пользовательский кодировщик
Выбранный битрейт : 896 kBit/s
Качество : Высокий
Добавление ID3-тега : Нет
Утилита сжатия : D:\Program Files\Exact Audio Copy\Flac\flac.exe
Дополнительные параметры : -V -8 -T "Genre=%genre%" -T "Artist=%artist%" -T "Title=%title%" -T "Album=%albumtitle%" -T "Date=%year%" -T "Tracknumber=%tracknr%" -T "Comment=%comment%" %source%

TOC извлечённого CD

Трек | Старт | Длительность | Начальный сектор | Конечный сектор
---------------------------------------------------------------------
1 | 0:00.00 | 2:42.11 | 0 | 12160
2 | 2:42.11 | 3:31.70 | 12161 | 28055
3 | 6:14.06 | 4:33.19 | 28056 | 48549
4 | 10:47.25 | 4:12.05 | 48550 | 67454
5 | 14:59.30 | 2:00.70 | 67455 | 76524
6 | 17:00.25 | 2:42.16 | 76525 | 88690
7 | 19:42.41 | 4:26.70 | 88691 | 108710
8 | 24:09.36 | 3:26.72 | 108711 | 124232

Характеристики диапазона извлечения и сообщения об ошибках

Выбранный диапазон

Имя файла K:\Музика\Death Metal\Р. С\Р. С. (flac)\2005 - Вічність\Р. С. - Вічність.wav

Подозрительная позиция 0:02:31

Пиковый уровень 100.0 %
Скорость извлечения 1.1 X
Качество диапазона 99.8 %
CRC копии 68BDBC04
Копирование завершено

Были ошибки

Конец отчёта

==== Контрольная сумма отчёта F5FFFD82ACB7B0ADF2B21EACB2DE58D9F74D6F991F38940FEAC7AE7857A6CE44 ====
2008 - В іншій площині
1. Час обирати
2. Хто ти?
3. В іншій площині
4. Прозріння
5. В обіймах хмар
6. Віражі
7. Вставай
8. Серед пустель та скель
Тривалість: 00:30:45
Бітрейт: 938 кб/с
log
Exact Audio Copy V1.0 beta 3 from 29. August 2011

Отчёт EAC об извлечении, выполненном 14. декабря 2012, 22:26

Р. С. / В іншій площині

Дисковод: HL-DT-STDVDRAM GH24NS90 Adapter: 3 ID: 1

Режим чтения : Достоверность
Использование точного потока : Да
Отключение кэша аудио : Да
Использование указателей C2 : Нет

Коррекция смещения при чтении : 0
Способность читать области Lead-in и Lead-out : Нет
Заполнение пропущенных сэмплов тишиной : Да
Удаление блоков с тишиной в начале и конце : Нет
При вычислениях CRC использовались нулевые сэмплы : Да
Интерфейс : Встроенный Win32-интерфейс для Win NT/2000

Выходной формат : Пользовательский кодировщик
Выбранный битрейт : 896 kBit/s
Качество : Высокий
Добавление ID3-тега : Нет
Утилита сжатия : D:\Program Files\Exact Audio Copy\Flac\flac.exe
Дополнительные параметры : -V -8 -T "Genre=%genre%" -T "Artist=%artist%" -T "Title=%title%" -T "Album=%albumtitle%" -T "Date=%year%" -T "Tracknumber=%tracknr%" -T "Comment=%comment%" %source%

TOC извлечённого CD

Трек | Старт | Длительность | Начальный сектор | Конечный сектор
---------------------------------------------------------------------
1 | 0:00.00 | 3:23.30 | 0 | 15254
2 | 3:23.30 | 3:45.07 | 15255 | 32136
3 | 7:08.37 | 3:39.60 | 32137 | 48621
4 | 10:48.22 | 3:58.45 | 48622 | 66516
5 | 14:46.67 | 4:12.00 | 66517 | 85416
6 | 18:58.67 | 3:00.45 | 85417 | 98961
7 | 21:59.37 | 3:18.60 | 98962 | 113871
8 | 25:18.22 | 5:27.37 | 113872 | 138433

Характеристики диапазона извлечения и сообщения об ошибках

Выбранный диапазон

Имя файла K:\Музика\Death Metal\Р. С\Р. С. (flac)\2008 - В іншій площині\Р. С. - В іншій площині.wav

Пиковый уровень 100.0 %
Скорость извлечения 6.0 X
Качество диапазона 100.0 %
CRC копии EE852258
Копирование... OK

Ошибок не произошло

Конец отчёта

==== Контрольная сумма отчёта E05E189F94903B2E4FA810A5875DE0884EEBE40FFC3539A7D92009C21B9FA5DE ====
2012 - Чаклун
1. Інквізиція
2. Іскра
3. Ніч
4. Обранець небес
5. У повній тиші
6. Під жодним прапором
7. Стій
8. Чаклун
Тривалість: 00:32:49
Бітрейт: 883 кб/с
log
Exact Audio Copy V1.0 beta 3 from 29. August 2011

Отчёт EAC об извлечении, выполненном 14. декабря 2012, 22:37

Р. С. / Чаклун

Дисковод: HL-DT-STDVDRAM GH24NS90 Adapter: 3 ID: 1

Режим чтения : Достоверность
Использование точного потока : Да
Отключение кэша аудио : Да
Использование указателей C2 : Нет

Коррекция смещения при чтении : 0
Способность читать области Lead-in и Lead-out : Нет
Заполнение пропущенных сэмплов тишиной : Да
Удаление блоков с тишиной в начале и конце : Нет
При вычислениях CRC использовались нулевые сэмплы : Да
Интерфейс : Встроенный Win32-интерфейс для Win NT/2000

Выходной формат : Пользовательский кодировщик
Выбранный битрейт : 896 kBit/s
Качество : Высокий
Добавление ID3-тега : Нет
Утилита сжатия : D:\Program Files\Exact Audio Copy\Flac\flac.exe
Дополнительные параметры : -V -8 -T "Genre=%genre%" -T "Artist=%artist%" -T "Title=%title%" -T "Album=%albumtitle%" -T "Date=%year%" -T "Tracknumber=%tracknr%" -T "Comment=%comment%" %source%

TOC извлечённого CD

Трек | Старт | Длительность | Начальный сектор | Конечный сектор
---------------------------------------------------------------------
1 | 0:00.00 | 5:08.00 | 0 | 23099
2 | 5:08.00 | 4:21.15 | 23100 | 42689
3 | 9:29.15 | 3:41.37 | 42690 | 59301
4 | 13:10.52 | 4:11.30 | 59302 | 78156
5 | 17:22.07 | 3:56.52 | 78157 | 95908
6 | 21:18.59 | 3:16.00 | 95909 | 110608
7 | 24:34.59 | 3:46.00 | 110609 | 127558
8 | 28:20.59 | 4:28.30 | 127559 | 147688

Характеристики диапазона извлечения и сообщения об ошибках

Выбранный диапазон

Имя файла K:\Музика\Death Metal\Р. С\Р. С. (flac)\2012 - Чаклун\Р. С. - Чаклун.wav

Пиковый уровень 100.0 %
Скорость извлечения 3.5 X
Качество диапазона 100.0 %
CRC копии A75D23B0
Копирование... OK

Ошибок не произошло

Конец отчёта

==== Контрольная сумма отчёта 769CD0B9F0938A30F1FE1D12C1B14F777B9C7E72FF38192550DF3038AEF7E87D ====
Тривалість: 01:31:11
Мова: українська
Аудіо-кодек: FLAC
Бітрейт: 820 - 938 кб/с
Джерело: оригінальні диски
Додаткова інформація:
Гурт Р. С. був створений восени 2002 року вокалістом-гітаристом гурту "Штат", який існував у Києві з кінця 1988 по весну 2002 року. Р. С. - це студійний гурт, який працює у стилі "важкий рок" з україномовними текстами. Дебютний альбом гурту під назвою "Вічність" з'явився в лютому 2005 року. Другий альбом гурту "Р. С." вийшов у грудні 2008 року і мав назву "В іншій площині".
І ось, у липні 2012 року вийшов довгоочікуваний третій студійний альбом гурту з назвою "Чаклун".

Особиста оцінка: 10 - неперевершено!

Якщо Ви справді бажаєте підтримати українське - після прослуховування, якщо музика вам сподобалась, придбайте ліцензійний диск. Підтримаймо вітчизняних виконавців!



Золотий реліз (завантажене не впливає на рейтинг)
 Трекер:    Зареєстрований   

Завантажити / скачати українську музику



відео для новачків



 Зареєстрований:   2012-12-16 16:17
 Розмір:   586 MB 
 Оцінка музики:   10/10 (Голосів: 3)
   
ssTAss 
Модератор музики


З нами з: 05.07.08
Востаннє: 08.12.16
Повідомлень: 10947

2012-12-16 19:46  
хм, ніби реліз вже був перевірений.. міняли торрент? чому?
Kitler 
Модератор програмного забезпечення


З нами з: 22.04.11
Востаннє: 08.12.16
Повідомлень: 591

2012-12-16 19:48  
Wide grin То був MP3, а це FLAC
П. С. mp3 тут

ssTAss 
Модератор музики


З нами з: 05.07.08
Востаннє: 08.12.16
Повідомлень: 10947

2012-12-16 19:49  
ооо, всьо... старий запрацювався)))
ssTAss 
Модератор музики


З нами з: 05.07.08
Востаннє: 08.12.16
Повідомлень: 10947

2012-12-19 23:14  
один, хто хоче завантажити, та й той не може))
агов, десь пропали?
а коли на роздачі, то порти маєте закриті(

ssTAss 
Модератор музики


З нами з: 05.07.08
Востаннє: 08.12.16
Повідомлень: 10947

2012-12-24 02:29  
дякую, Kitler'е, вже завантажив
тепер про музику
перший альбом нікудишній - ні в плані самої музики, ні в плані запису (з мр3 128 кбіт/с)
з другим альбомом видно, що хлопаки виросли (не так хард-рок, як спід-рок)
третій - найкращий, імхо.. потужний і класний хард-рок
от тільки щось треба робити з записом голосу вокаліста... чи то так задумано - трохи тихіше і таке враження, що стоїть осторонь самого гурту.. вони собі окремо, а я окремо (ніби записувались порізно)
а загалом - рок є рок, а коли він хард, то побільше б його якісного і українською, нє?

pupsa 
Новенький


З нами з: 08.11.11
Востаннє: 27.01.13
Повідомлень: 1

2012-12-24 19:07  
Знаю цих хлопців. Погоджуюсь, що вони прогресують! Чув нові напрацювання - дуже цікаво! Обіцяють незабаром викласти на своєму сайті!
Ваш часовий пояс: GMT + 2 Години

Нова тема   Відповісти