Завантажити та скачати торренти українською


Orkiestra Sw. Mikolaja - Lem-Agination (2007) [FLAC] | Folk

Нові коментарі

Нова тема   Відповісти
Автор Повідомлення
ssTAss 
Модератор музики


З нами з: 05.07.08
Востаннє: 09.12.16
Повідомлень: 10948

2012-12-13 23:29  
Orkiestra Sw. Mikolaja - Lem-Agination (2007) [FLAC] | Folk

Orkiestra Sw. Mikolaja - Lem-Agination (2007) [FLAC] | Folk


Стиль: Ethno, Folk
Країна, місто: Польща, Люблін
Сайти: Офіційний сайт
Видавець: Open Sources
Виконавці:
Maria Natanson - скрипка, альт, вокал
Anna Bielak - скрипка, вокал
Katarzyna Mikołajczak - скрипка, вокал
Robert Brzozowski - контрабас
Piotr Majczyna - вокал
Bogdan Bracha - скрипка, вокал
Пісні:
    01 - A ty myła
    02 - Zahraj że nam zahraj
    03 - Oj mam ja kosu
    04 - Kazała mi mama
    05 - A neje to neje
    06 - Katrena
    07 - Palinoczka
    08 - Ej kume kume
    09 - Oj moroz moroz
    10 - Ne pidu ja do lesa
    11 - Ożenył jem sa (Obertan)
    12 - Zrodyly sia terky
    13 - U haiczku trawyczku ja żała
    14 - Dobri w Hamerycy
    15 - Wandriwnyci
    16 - Oj wpyła ja sia wpyła
    17 - Ne lubył jem tja
    18 - Piosenki ze Słowacji
log
Exact Audio Copy V0.99 prebeta 3 from 28. July 2007

EAC extraction logfile from 8. February 2008, 10:39

Orkiestra Sw Mikolaja / Lemagination

Used drive : _NEC DVD_RW ND-4570A Adapter: 1 ID: 0

Read mode : Secure
Utilize accurate stream : Yes
Defeat audio cache : Yes
Make use of C2 pointers : No

Read offset correction : 48
Overread into Lead-In and Lead-Out : No
Fill up missing offset samples with silence : Yes
Delete leading and trailing silent blocks : No
Null samples used in CRC calculations : Yes
Used interface : Native Win32 interface for Win NT & 2000
Gap handling : Appended to previous track

Used output format : User Defined Encoder
Selected bitrate : 128 kBit/s
Quality : High
Add ID3 tag : No
Command line compressor : C:\Program Files\Exact Audio Copy\Flac\flac.exe
Additional command line options : -8 -V -T "ARTIST=%a" -T "TITLE=%t" -T "ALBUM=%g" -T "DATE=%y" -T "TRACKNUMBER=%n" -T "GENRE=%m" -T "COMMENT=EAC FLAC -8" %s

TOC of the extracted CD

Track | Start | Length | Start sector | End sector
---------------------------------------------------------
1 | 0:00.00 | 1:52.38 | 0 | 8437
2 | 1:52.38 | 1:43.71 | 8438 | 16233
3 | 3:36.34 | 2:54.22 | 16234 | 29305
4 | 6:30.56 | 2:53.11 | 29306 | 42291
5 | 9:23.67 | 2:32.32 | 42292 | 53723
6 | 11:56.24 | 2:36.28 | 53724 | 65451
7 | 14:32.52 | 2:39.10 | 65452 | 77386
8 | 17:11.62 | 2:04.67 | 77387 | 86753
9 | 19:16.54 | 3:16.46 | 86754 | 101499
10 | 22:33.25 | 3:51.03 | 101500 | 118827
11 | 26:24.28 | 2:06.58 | 118828 | 128335
12 | 28:31.11 | 2:25.05 | 128336 | 139215
13 | 30:56.16 | 2:21.37 | 139216 | 149827
14 | 33:17.53 | 3:13.17 | 149828 | 164319
15 | 36:30.70 | 2:20.51 | 164320 | 174870
16 | 38:51.46 | 1:45.08 | 174871 | 182753
17 | 40:36.54 | 2:35.11 | 182754 | 194389
18 | 43:11.65 | 7:17.63 | 194390 | 227227

Track 1

Filename D:\Moja muzyka\Orkiestra Sw. Mikolaja - Lemagination\01 - Orkiestra Sw Mikolaja , A ty myla.wav

Pre-gap length 0:00:02.00

Peak level 97.7 %
Track quality 100.0 %
Test CRC 96AB8577
Copy CRC 96AB8577
Track not present in AccurateRip database
Copy OK

Track 2

Filename D:\Moja muzyka\Orkiestra Sw. Mikolaja - Lemagination\02 - Orkiestra Sw Mikolaja , Zahraj, ze nam zahraj.wav

Pre-gap length 0:00:01.02

Peak level 97.7 %
Track quality 99.8 %
Test CRC 8519F493
Copy CRC 8519F493
Track not present in AccurateRip database
Copy OK

Track 3

Filename D:\Moja muzyka\Orkiestra Sw. Mikolaja - Lemagination\03 - Orkiestra Sw Mikolaja , Oj mam ja kosu.wav

Pre-gap length 0:00:01.37

Peak level 97.7 %
Track quality 100.0 %
Test CRC 44FEA5D2
Copy CRC 44FEA5D2
Track not present in AccurateRip database
Copy OK

Track 4

Filename D:\Moja muzyka\Orkiestra Sw. Mikolaja - Lemagination\04 - Orkiestra Sw Mikolaja , Kazala mi mama.wav

Pre-gap length 0:00:00.65

Peak level 97.7 %
Track quality 100.0 %
Test CRC 133E93DF
Copy CRC 133E93DF
Track not present in AccurateRip database
Copy OK

Track 5

Filename D:\Moja muzyka\Orkiestra Sw. Mikolaja - Lemagination\05 - Orkiestra Sw Mikolaja , A ne je to ne je.wav

Pre-gap length 0:00:00.68

Peak level 97.7 %
Track quality 99.9 %
Test CRC E6B49610
Copy CRC E6B49610
Track not present in AccurateRip database
Copy OK

Track 6

Filename D:\Moja muzyka\Orkiestra Sw. Mikolaja - Lemagination\06 - Orkiestra Sw Mikolaja , Katrena.wav

Pre-gap length 0:00:00.94

Peak level 97.7 %
Track quality 99.9 %
Test CRC 7C6161EB
Copy CRC 7C6161EB
Track not present in AccurateRip database
Copy OK

Track 7

Filename D:\Moja muzyka\Orkiestra Sw. Mikolaja - Lemagination\07 - Orkiestra Sw Mikolaja , Palynoczka.wav

Pre-gap length 0:00:01.16

Peak level 97.7 %
Track quality 100.0 %
Test CRC 3824C65D
Copy CRC 3824C65D
Track not present in AccurateRip database
Copy OK

Track 8

Filename D:\Moja muzyka\Orkiestra Sw. Mikolaja - Lemagination\08 - Orkiestra Sw Mikolaja , Ej kume kume.wav

Pre-gap length 0:00:00.69

Peak level 97.7 %
Track quality 100.0 %
Test CRC A15A1690
Copy CRC A15A1690
Track not present in AccurateRip database
Copy OK

Track 9

Filename D:\Moja muzyka\Orkiestra Sw. Mikolaja - Lemagination\09 - Orkiestra Sw Mikolaja , Moroz.wav

Pre-gap length 0:00:00.60

Peak level 97.7 %
Track quality 100.0 %
Test CRC 7810FF21
Copy CRC 7810FF21
Track not present in AccurateRip database
Copy OK

Track 10

Filename D:\Moja muzyka\Orkiestra Sw. Mikolaja - Lemagination\10 - Orkiestra Sw Mikolaja , Ne pidu ja do lesa.wav

Pre-gap length 0:00:00.69

Peak level 97.7 %
Track quality 100.0 %
Test CRC F4E281B0
Copy CRC F4E281B0
Track not present in AccurateRip database
Copy OK

Track 11

Filename D:\Moja muzyka\Orkiestra Sw. Mikolaja - Lemagination\11 - Orkiestra Sw Mikolaja , Obertan.wav

Pre-gap length 0:00:01.74

Peak level 97.7 %
Track quality 100.0 %
Test CRC A8764702
Copy CRC A8764702
Track not present in AccurateRip database
Copy OK

Track 12

Filename D:\Moja muzyka\Orkiestra Sw. Mikolaja - Lemagination\12 - Orkiestra Sw Mikolaja , Terky.wav

Pre-gap length 0:00:00.33

Peak level 97.7 %
Track quality 100.0 %
Test CRC 44329C9F
Copy CRC 44329C9F
Track not present in AccurateRip database
Copy OK

Track 13

Filename D:\Moja muzyka\Orkiestra Sw. Mikolaja - Lemagination\13 - Orkiestra Sw Mikolaja , U haiczku.wav

Pre-gap length 0:00:01.10

Peak level 97.7 %
Track quality 100.0 %
Test CRC 4402B1B6
Copy CRC 4402B1B6
Track not present in AccurateRip database
Copy OK

Track 14

Filename D:\Moja muzyka\Orkiestra Sw. Mikolaja - Lemagination\14 - Orkiestra Sw Mikolaja , Dobri w Hamerycy.wav

Pre-gap length 0:00:01.05

Peak level 97.7 %
Track quality 100.0 %
Test CRC 134259FC
Copy CRC 134259FC
Track not present in AccurateRip database
Copy OK

Track 15

Filename D:\Moja muzyka\Orkiestra Sw. Mikolaja - Lemagination\15 - Orkiestra Sw Mikolaja , Wandriwnyci.wav

Pre-gap length 0:00:01.13

Peak level 97.7 %
Track quality 100.0 %
Test CRC 89DD2994
Copy CRC 89DD2994
Track not present in AccurateRip database
Copy OK

Track 16

Filename D:\Moja muzyka\Orkiestra Sw. Mikolaja - Lemagination\16 - Orkiestra Sw Mikolaja , Oj wpyla ja sia wpyla.wav

Pre-gap length 0:00:00.84

Peak level 97.7 %
Track quality 100.0 %
Test CRC 5313246C
Copy CRC 5313246C
Track not present in AccurateRip database
Copy OK

Track 17

Filename D:\Moja muzyka\Orkiestra Sw. Mikolaja - Lemagination\17 - Orkiestra Sw Mikolaja , Ne lubil jem tia.wav

Pre-gap length 0:00:00.52

Peak level 97.7 %
Track quality 100.0 %
Test CRC 05DB1762
Copy CRC 05DB1762
Track not present in AccurateRip database
Copy OK

Track 18

Filename D:\Moja muzyka\Orkiestra Sw. Mikolaja - Lemagination\18 - Orkiestra Sw Mikolaja , Piosenki slowackie.wav

Pre-gap length 0:00:00.80

Peak level 97.7 %
Track quality 100.0 %
Test CRC 1085B6F6
Copy CRC 1085B6F6
Track not present in AccurateRip database
Copy OK

None of the tracks are present in the AccurateRip database

No errors occurred

End of status report
fooCDtect
fooCDtect - foobar2000 + auCDtect, baralgin.

auCDtect: CD records authenticity detector, version 0.8.2
Copyright (c) 2004 Oleg Berngardt. All rights reserved.
Copyright (c) 2004 Alexander Djourik. All rights reserved.

mode: 0

===========================================
Track: 01 - A ty myla
Quality: CDDA 100%
===========================================
Track: 02 - Zahraj, ze nam zahraj
Quality: CDDA 100%
===========================================
Track: 03 - Oj mam ja kosu
Quality: CDDA 100%
===========================================
Track: 04 - Kazala mi mama
Quality: CDDA 100%
===========================================
Track: 05 - A ne je to ne je
Quality: CDDA 100%
===========================================
Track: 06 - Katrena
Quality: CDDA 100%
===========================================
Track: 07 - Palynoczka
Quality: CDDA 100%
===========================================
Track: 08 - Ej kume kume
Quality: CDDA 100%
===========================================
Track: 09 - Moroz
Quality: CDDA 100%
===========================================
Track: 10 - Ne pidu ja do lesa
Quality: CDDA 100%
===========================================
Track: 11 - Obertan
Quality: CDDA 100%
===========================================
Track: 12 - Terky
Quality: CDDA 99%
===========================================
Track: 13 - U haiczku
Quality: CDDA 100%
===========================================
Track: 14 - Dobri w Hamerycy
Quality: CDDA 100%
===========================================
Track: 15 - Wandriwnyci
Quality: CDDA 99%
===========================================
Track: 16 - Oj wpyla ja sia wpyla
Quality: CDDA 100%
===========================================
Track: 17 - Ne lubil jem tia
Quality: CDDA 100%
===========================================
Track: 18 - Piosenki slowackie
Quality: CDDA 100%
===========================================
Тривалість: 00:50:30
Мова: українська (лемківська говірка)
Аудіо-кодек: FLAC
Бітрейт: 926 кб/с
Джерело: польський трекер (зібрано в образ, поправлено теги, куе)
Додаткова інформація:
польською
Żaden region w Polsce nie może pochwalić się tak dużą i spontanicznie wyrażaną popularnością swojego muzycznego folkloru jak Łemkowszczyzna. Pewnie nie bez znaczenia pozostaje tutaj magia i historia tych gór, jednak pieśniom łemkowskim trudno odmówić czysto muzycznych, estetycznych walorów. Ich niepowtarzalna, nostalgiczna melodyka to wynik wzajemnych wpływów tradycji ukraińskiej, słowackiej i polskiej, pozostających w ścisłym związku z muzyczną kulturą całego pasa karpackiego, a spojonych pradawną, charakterystyczną dla całych Karpat wołoską skalą. Ich uroda sprawia, że stanowią obowiązkową część repertuaru wielu wykonawców współcześnie parających się muzyka tradycyjną.

Łemkowszczyzna to w Karpatach kraina szczególna…Ślady ludnych niegdyś wiosek dostrzeże tu tylko wnikliwy obserwator. Przedzierając się przez morza zarośli i pola pokrzyw niczym archeolog tropiący zaginione cywilizacje przez kolejne poziomy osadnicze, odnajdzie stare studnie, piwnice i fundamenty domów, przydrożne krzyże, cerkwiszcza, cmentarze… Taki krajobraz to skutek brutalnych powojennych przesiedleń ludności łemkowskiej przeprowadzonych w latach czterdziestych ubiegłego wieku przez stalinowskie władze Polski. Wraz z siedliskami, katastrofę przeżyła łemkowska kultura z mozołem i pietyzmem kultywowana przez nielicznych, którzy powrócili albo skupili się w nowych miejscach zamieszkania.

Wytrwałymi i skutecznymi odkrywcami „Łemkowskiej Atlantydy” okazali się turyści, którzy upodobali sobie tajemnicze góry i doliny Łemkowszczyzny, a szczególna rolę w popularyzacji kultury łemkowskiej odegrali zapaleni górscy wędrowcy wywodzący się z wielkich ośrodków akademickich. W każdej wolnej chwili uciekali w góry, żeby odetchnąć wolnością i chociaż na krótko wyrwać się z ciasnych realiów szarej PRL-owskiej rzeczywistości. Nie tylko studenci, ale również ich profesorowie na biwakach, przy wieczornych ogniskach chętnie wspólnie śpiewali pieśni łemkowskie. W takim właśnie klimacie i w tych środowiskach w końcu lat osiemdziesiątych powstała Orkiestra św. Mikołaja.

Idea odtworzenia brzmienia kapeli łemkowskiej połączyła muzyków Orkiestry, z których każdy wędruje trochę inna ścieżką inspiracji. Są wśród nas przedstawiciele zarówno owych odkrywców - wędrowców jak i miłośników, albo przede wszystkim praktyków muzyki karpackiej. Są też tacy, których przodkowie pochodzą z tych gór. Czy udało nam się chociaż w niewielkim stopniu odpowiedzieć na pytanie, jaka była ta muzyka? A może nasza płyta to raczej głos w dyskusji, jaka byłaby współczesna tradycyjna muzyka łemkowska gdyby historia łaskawiej obeszła się z Łemkami i ich kulturą...


Якщо Ви справді бажаєте підтримати українське - після прослуховування, якщо музика вам сподобалась,
придбайте ліцензійний диск.
Підтримаймо вітчизняних виконавців!


Срібний реліз (на рейтинг впливає 50% завантаженого)
 Трекер:    Зареєстрований   

Завантажити / скачати українську музику



відео для новачків



 Зареєстрований:   2012-12-13 23:29
 Розмір:   343 MB 
 Оцінка музики:   5.5/10 (Голосів: 6)
   
Форкуш 
VIP


З нами з: 03.02.10
Востаннє: 09.12.16
Повідомлень: 1545

2013-06-10 22:48  
Так дискографії хочеться всієї в 320)))
Ваш часовий пояс: GMT + 2 Години

Нова тема   Відповісти