Завантажити та скачати торренти українською


Dragobrath - Дискографія (4 альбоми) (2006-2011) [APE, FLAC] | Pagan Black Metal

Нові коментарі

Нова тема   Відповісти
Автор Повідомлення
Lev 
VIP


З нами з: 14.10.09
Востаннє: 05.12.16
Повідомлень: 1819

2012-12-12 21:33  
Dragobrath - Дискографія (4 альбоми) (2006-2011) [APE, FLAC] | Pagan Black Metal

Dragobrath - Дискографія (4 альбоми) (2006-2011) [APE, FLAC] | Pagan Black Metal


Стиль: Pagan Black Metal
Країна, місто: Україна, Львів
Сайти: Офіційний сайт
Видавець: Stygian Crypt Productions ; Eastside
Виконавці:
Synevir (Viter, ex-Capitollium, ex-Leadhaze, ex-Ruina, ex-Apostate, ex-Kroda, ex-Molphar, ex-Liturgy for Nosferatu) - всі інструменти та музика, вокал (в альбомі "And Mountains Openeth Eyes..." та "WhisperHerbs")

а також :

Krukh - вокал (в альбомі "Scripture of the Woods")
Tchugaister - додатковий вокал (в альбомі "And Mountains Openeth Eyes..."),
основний вокал і музика (в альбомі Fra Myrer Taake...)
Анна Васильченко (Kings & Beggars) - скрипка (в альбомі "WhisperHerbs")

Пісні:
    Scripture of the Woods (2006)




    01. Entering The Austere Realm Of Forestpower (00:25)
    02. Scripture Of The Woods (05:13)
    03. Idols Of The Yore (04:56)
    04. Eerie Obscure (08:18)
    05. Subjugated By The Barbaric Pagan Power (05:44)
    06. Ephemeral Tunnel Leading To The Past (06:12)
    07. Entombment Of Crapulent Souls (06:12)
    08. Anamorphosis Into The Ancient Aeons (07:21)
    09. Transylvanian Hunger (Darkthrone Cover) (06:00)

    Тривалість: 00:50:41
    Мова: англійська
    Аудіо-кодек : FLAC
    Бітрейт : 1069 кб/с
    Скани : +
    Видавець: Stygian Crypt production
    log EAC
    Exact Audio Copy V0.99 prebeta 5 from 4. May 2009

    Отчёт EAC об извлечении, выполненном 21. марта 2010, 19:58

    Dragobrath / Scripture of the Woods

    Дисковод: PLEXTOR DVDR PX-820SA Adapter: 5 ID: 0

    Режим чтения : Достоверность
    Использование точного потока : Да
    Отключение кэша аудио : Да
    Использование указателей C2 : Нет

    Коррекция смещения при чтении : 48
    Способность читать области Lead-in и Lead-out : Нет
    Заполнение пропущенных сэмплов тишиной : Да
    Удаление блоков с тишиной в начале и конце : Нет
    При вычислениях CRC использовались нулевые сэмплы : Да
    Интерфейс : Установленный внешний ASPI-интерфейс

    Выходной формат : Внутренние WAV-операции
    Формат сэмплов : 44.100 Гц; 16 бит; стерео

    TOC извлечённого CD

    Трек | Старт | Длительность | Начальный сектор | Конечный сектор
    ---------------------------------------------------------------------
    1 | 0:00.00 | 0:24.40 | 0 | 1839
    2 | 0:24.40 | 5:13.29 | 1840 | 25343
    3 | 5:37.69 | 4:56.30 | 25344 | 47573
    4 | 10:34.24 | 8:17.43 | 47574 | 84891
    5 | 18:51.67 | 5:43.52 | 84892 | 110668
    6 | 24:35.44 | 6:11.66 | 110669 | 138559
    7 | 30:47.35 | 6:32.10 | 138560 | 167969
    8 | 37:19.45 | 7:21.10 | 167970 | 201054
    9 | 44:40.55 | 6:00.37 | 201055 | 228091

    Характеристики диапазона извлечения и сообщения об ошибках

    Выбранный диапазон

    Имя файла E:\_на_заливку BFM\new_release\Dragobrath - 2006 - Scripture of the Woods [FLAC]\Dragobrath - 2006 - Scripture of the Woods.wav

    Пиковый уровень 98.2 %
    Качество диапазона 100.0 %
    CRC копии 1B98E16D
    Копирование... OK

    Ошибок не произошло

    AccurateRip: сводка

    Трек 1 нет в базе данных
    Трек 2 нет в базе данных
    Трек 3 нет в базе данных
    Трек 4 нет в базе данных
    Трек 5 нет в базе данных
    Трек 6 нет в базе данных
    Трек 7 нет в базе данных
    Трек 8 нет в базе данных
    Трек 9 точное извлечение (доверие 1) [BB893E89]

    1 трек(и) скопированы точно
    8 трек(и) не содержатся в базе AccurateRip

    Некоторые треки не прошли проверку на точность

    Конец отчёта
    And Mountains Openeth Eyes...(2008)




    1. By the Silvery Pathway (Срібним Шляхом) (06:38)
    2. And Gorgany Openeth Eyes... (І Очі Відкрили Горгани...) (06:14)
    3. ...of Rotten Water (...Гнилої Водиці) (04:41)
    4. Like a Last Moan (Мов Стогін Останній) (05:44)
    5. Withered Leaves... (Листя Пожовкле...) (08:47)

    Тривалість: 00:32:05
    Мова: українська
    Аудіо-кодек : АРЕ
    Бітрейт : 1017 кб/с
    Скани : +
    Видавець: Eastside
    log EAC
    Exact Audio Copy V0.99 prebeta 5 from 4. May 2009

    Отчёт EAC об извлечении, выполненном 21. марта 2010, 19:58

    Dragobrath / Scripture of the Woods

    Дисковод: PLEXTOR DVDR PX-820SA Adapter: 5 ID: 0

    Режим чтения : Достоверность
    Использование точного потока : Да
    Отключение кэша аудио : Да
    Использование указателей C2 : Нет

    Коррекция смещения при чтении : 48
    Способность читать области Lead-in и Lead-out : Нет
    Заполнение пропущенных сэмплов тишиной : Да
    Удаление блоков с тишиной в начале и конце : Нет
    При вычислениях CRC использовались нулевые сэмплы : Да
    Интерфейс : Установленный внешний ASPI-интерфейс

    Выходной формат : Внутренние WAV-операции
    Формат сэмплов : 44.100 Гц; 16 бит; стерео

    TOC извлечённого CD

    Трек | Старт | Длительность | Начальный сектор | Конечный сектор
    ---------------------------------------------------------------------
    1 | 0:00.00 | 0:24.40 | 0 | 1839
    2 | 0:24.40 | 5:13.29 | 1840 | 25343
    3 | 5:37.69 | 4:56.30 | 25344 | 47573
    4 | 10:34.24 | 8:17.43 | 47574 | 84891
    5 | 18:51.67 | 5:43.52 | 84892 | 110668
    6 | 24:35.44 | 6:11.66 | 110669 | 138559
    7 | 30:47.35 | 6:32.10 | 138560 | 167969
    8 | 37:19.45 | 7:21.10 | 167970 | 201054
    9 | 44:40.55 | 6:00.37 | 201055 | 228091

    Характеристики диапазона извлечения и сообщения об ошибках

    Выбранный диапазон

    Имя файла E:\_на_заливку BFM\new_release\Dragobrath - 2006 - Scripture of the Woods [FLAC]\Dragobrath - 2006 - Scripture of the Woods.wav

    Пиковый уровень 98.2 %
    Качество диапазона 100.0 %
    CRC копии 1B98E16D
    Копирование... OK

    Ошибок не произошло

    AccurateRip: сводка

    Трек 1 нет в базе данных
    Трек 2 нет в базе данных
    Трек 3 нет в базе данных
    Трек 4 нет в базе данных
    Трек 5 нет в базе данных
    Трек 6 нет в базе данных
    Трек 7 нет в базе данных
    Трек 8 нет в базе данных
    Трек 9 точное извлечение (доверие 1) [BB893E89]

    1 трек(и) скопированы точно
    8 трек(и) не содержатся в базе AccurateRip

    Некоторые треки не прошли проверку на точность

    Конец отчёта
    Fra Myrer Taake... (2010)




    1. Intro (Закляття болотних змій) (00:43)
    2. Inhaling the Distant Open Far... (Вдихаючи Простір…) (04:55)
    3. Nightwings (Крила Ночі) (07:56)
    4. Fra Myrer Taake... (З Туману Дрягов…) (04:49)
    5. Blazes of Starlit Firmament (Зоряного Небосхилу Спалахи) (11:27)
    6. Crimson Leaves Dance (Листя Багряного Пляс) (06:32)
    7. Ravenclouds (Хмари-ворони) (07:07)
    8. Walk the Path of Sorrow (Satyricon cover) (07:06)

    Тривалість: 00:50:35
    Мова: інстр. (1), українська (2-7), англійська (8)
    Аудіо-кодек : АРЕ
    Бітрейт : 1042 кб/с
    Скани : +
    Видавець: Eastside
    log EAC
    Exact Audio Copy V0.99 prebeta 4 from 23. January 2008

    Отчёт EAC об извлечении, выполненном 31. марта 2010, 17:20

    Dragobrath / Fra Myrer Taake...

    Дисковод: HL-DT-STDVD-RAM GH22NS30 Adapter: 2 ID: 1

    Режим чтения : Достоверность
    Использование точного потока : Да
    Отключение кэша аудио : Да
    Использование указателей C2 : Нет

    Коррекция смещения при чтении : 102
    Способность читать области Lead-in и Lead-out : Нет
    Заполнение пропущенных сэмплов тишиной : Да
    Удаление блоков с тишиной в начале и конце : Нет
    При вычислениях CRC использовались нулевые сэмплы : Да
    Интерфейс : Встроенный Win32-интерфейс для Win NT/2000

    Выходной формат : Внутренние WAV-операции
    Формат сэмплов : 44.100 Гц; 16 бит; стерео

    TOC извлечённого CD

    Трек | Старт | Длительность | Начальный сектор | Конечный сектор
    ---------------------------------------------------------------------
    1 | 0:00.00 | 0:45.01 | 0 | 3375
    2 | 0:45.01 | 4:57.04 | 3376 | 25654
    3 | 5:42.05 | 7:58.35 | 25655 | 61539
    4 | 13:40.40 | 4:50.51 | 61540 | 83340
    5 | 18:31.16 | 11:29.47 | 83341 | 135062
    6 | 30:00.63 | 6:34.08 | 135063 | 164620
    7 | 36:34.71 | 7:09.66 | 164621 | 196861
    8 | 43:44.62 | 7:06.66 | 196862 | 228877

    Характеристики диапазона извлечения и сообщения об ошибках

    Выбранный диапазон

    Имя файла D:\MEDIA\LOSLESS\Dragobrath 2010 Fra Myrer Taake....wav

    Пиковый уровень 100.0 %
    Качество диапазона 100.0 %
    CRC копии 81834B89
    Копирование... OK

    Ошибок не произошло

    AccurateRip: сводка

    Трек 1 нет в базе данных
    Трек 2 нет в базе данных
    Трек 3 нет в базе данных
    Трек 4 нет в базе данных
    Трек 5 нет в базе данных
    Трек 6 нет в базе данных
    Трек 7 нет в базе данных
    Трек 8 нет в базе данных

    Ни одного трека нет в базе AccurateRip

    Конец отчёта
    WhisperHerbs (2011)




    1. Night is Crawling and Gulps Herbal Milk (08:20)
    2. Cover the Earth with a Rainkisses (10:24)
    3. WhisperHerbs (08:39)
    4. Heather Strongholds (08:30)
    5. Along the Boundless Elbowroom of Fields (09:16)
    6. Celestial Glass Beads (08:40)

    Тривалість: 00:53:49
    Мова: англійська
    Аудіо-кодек : АРЕ
    Бітрейт : 1018
    Скани : +
    Видавець: Eastside
    log EAC
    Exact Audio Copy V0.99 prebeta 4 from 23. January 2008

    Отчёт EAC об извлечении, выполненном 4. июля 2012, 22:04

    Dragobrath / WhisperHerbs

    Дисковод: HL-DT-STDVDRAM GSA-H10N Adapter: 0 ID: 0

    Режим чтения : Достоверность
    Использование точного потока : Да
    Отключение кэша аудио : Да
    Использование указателей C2 : Нет

    Коррекция смещения при чтении : 667
    Способность читать области Lead-in и Lead-out : Нет
    Заполнение пропущенных сэмплов тишиной : Да
    Удаление блоков с тишиной в начале и конце : Нет
    При вычислениях CRC использовались нулевые сэмплы : Да
    Интерфейс : Встроенный Win32-интерфейс для Win NT/2000

    Выходной формат : Внутренние WAV-операции
    Формат сэмплов : 44.100 Гц; 16 бит; стерео

    TOC извлечённого CD

    Трек | Старт | Длительность | Начальный сектор | Конечный сектор
    ---------------------------------------------------------------------
    1 | 0:00.00 | 8:21.72 | 0 | 37646
    2 | 8:21.72 | 10:26.45 | 37647 | 84641
    3 | 18:48.42 | 8:40.70 | 84642 | 123711
    4 | 27:29.37 | 8:32.24 | 123712 | 162135
    5 | 36:01.61 | 9:18.62 | 162136 | 204047
    6 | 45:20.48 | 8:40.70 | 204048 | 243117

    Характеристики диапазона извлечения и сообщения об ошибках

    Выбранный диапазон

    Имя файла D:\01-TEMP-10\ISO\Dragobrath 2011 WhisperHerbs.wav

    Пиковый уровень 100.0 %
    Качество диапазона 100.0 %
    CRC копии 60763879
    Копирование... OK

    Ошибок не произошло

    AccurateRip: сводка

    Трек 1 нет в базе данных
    Трек 2 нет в базе данных
    Трек 3 нет в базе данных
    Трек 4 нет в базе данных
    Трек 5 нет в базе данных
    Трек 6 нет в базе данных

    Ни одного трека нет в базе AccurateRip

    Конец отчёта

Тривалість: 03:07:10
Мова: українська та англійська (див.поальбомно)
Аудіо-кодек: FLAC
Бітрейт: 1017-1069 кб/с (див. поальбомно)
Джерело: інший трекер
Додаткова інформація:
Роки активності проекту : 2004-2011.
2011 року вийшов альбом, який було анонсовано як останній у дискографії Dragobrath.


Якщо Ви справді бажаєте підтримати українське - після прослуховування, якщо музика вам сподобалась, придбайте ліцензійний диск. Підтримаймо вітчизняних виконавців!


Золотий реліз (завантажене не впливає на рейтинг)
 Трекер:    Зареєстрований   

Завантажити / скачати українську музику



відео для новачків



 Зареєстрований:   2012-12-12 21:33
 Розмір:   1.43 GB 
 Оцінка музики:   10/10 (Голосів: 4)
   
sko4 
Поважний учасник


З нами з: 23.06.08
Востаннє: 07.12.16
Повідомлень: 181

2012-12-12 22:13  
Lev написано:
Анна Василенко

Мабуть таки Васильченко

Не чув першого й останнього альбомів. Сподобався "І очі відкрили Ґорґани", а "...Тааке..." шось так собі.

Lev 
VIP


З нами з: 14.10.09
Востаннє: 05.12.16
Повідомлень: 1819

2012-12-12 23:26  
sko4 написано:
Мабуть таки Васильченко


виправлено.

sko4 написано:
а "...Тааке..." шось так собі.


це дуже сумнівна думка.

Oleksa9 
Поважний учасник


З нами з: 17.05.12
Востаннє: 07.12.16
Повідомлень: 225

2012-12-15 09:43  
Теж почав знайомство з творчістю цього гурту з "And Mountains Openeth Eyes" - сподобалося, тому й зацікавили інші альбоми. Раджу обов'язково ознайомитись зі "Scripture of the Woods" - він мабуть найкращий. Шкода, Що останні два дійсно так собі.... Отакі враження від прослуханого матеріалу.
Lev 
VIP


З нами з: 14.10.09
Востаннє: 05.12.16
Повідомлень: 1819

2012-12-15 16:31  
Oleksa9 написано:
Шкода, Що останні два дійсно так собі....


аргументуйте.

DemeteR 
Новенький


З нами з: 22.02.09
Востаннє: 15.10.16
Повідомлень: 23

2012-12-16 15:04  
стільки "ЕХ"...таке враження, що ми живемо або в Швеції або в Фінляндії...і тут кожен сусід має свою метал групу=)
Lev 
VIP


З нами з: 14.10.09
Востаннє: 05.12.16
Повідомлень: 1819

2012-12-16 20:44  
DemeteR

так це ж Вітерзгір

Ваш часовий пояс: GMT + 2 Години

Нова тема   Відповісти