Завантажити та скачати торренти українською


Voida - Colour Me Darkness (2011) [FLAC] | Acoustic Rock / Singer-Songwriter

Нові коментарі

Нова тема   Відповісти
Останній раз роздавалося Lev (2015-06-07)
Автор Повідомлення
Lev 
VIP


З нами з: 14.10.09
Востаннє: 05.12.16
Повідомлень: 1819

2012-12-11 20:08  
Voida - Colour Me Darkness (2011) [FLAC] | Acoustic Rock / Singer-Songwriter

Voida - Colour Me Darkness (2011) [FLAC] | Acoustic Rock / Singer-Songwriter


Стиль: Acoustic Rock / Singer-Songwriter / Art-Rock
Країна, місто: Україна, Київ
Видавець: автор
Виконавці:
Ігор Сидоренко (Krobak, Stoned Jesus, Funeral of the Sun, Arlekin, Snakerider, MC Прожектор) - вокал, акустична гітара (1-6), електрична гітара (2, 6), ударні та бас-гітара (2, 5, 6), тексти і музика.

запрошені музиканти :

Олексій (Vespero) - мелотрон, hammond organ (1-6)
bnk (Selma) - соло на саксофоні (6)

Пісні:
    1. Colour Me Darkness (03:12)
    2. Erased (07:01)
    3. No Sanctuary For The Sinking Ship (05:57)
    4. The Last Date * (05:12)
    5. The First Snow (08:12)
    6. Poison In The Wells (14:03)

    * - 4 і 5 треки складають "The Disintegration Dilogy"


Тривалість: 00:44:06
Мова: англійська
Аудіо-кодек: FLAC
Бітрейт: 686 кб/с
Джерело: ріп з оригінального диску від mekong
Додаткова інформація:
Проект Voida спочатку народився з нереалізованого матеріалу для інструментального Krobak як своєрідне "поле для експериментів". Дроуново-ембіентні ландшафти поступово мутували в сінгер-сонграйтерський матеріал, натхенний творчістю таких культових постатей, як Nick Drake, Tim Buckley, Leonard Cohen, Peter Hammil, Steve Von Till, Matthew Parmenter, Brian Borcherdt, Vic Chesnutt, Elliot Smith, A Silver Mt Zion, Neil Young, etc.

Colour Me Darkness - другий повноформатний альбом Voida, покликаний продемонструвати, наскільки глибоко Ігор перейнявся музикою своїх духовних учителів.

Альбом вийшов 31 жовтня 2011 року.

Буклет з текстами пісень також є в роздачі.
log EAC
Exact Audio Copy V1.0 beta 3 from 29. August 2011

EAC extraction logfile from 29. May 2012, 19:59

Voida / Colour Me Darkness

Used drive : ASUS DRW-1608P Adapter: 1 ID: 1

Read mode : Secure
Utilize accurate stream : Yes
Defeat audio cache : Yes
Make use of C2 pointers : No

Read offset correction : 48
Overread into Lead-In and Lead-Out : No
Fill up missing offset samples with silence : Yes
Delete leading and trailing silent blocks : No
Null samples used in CRC calculations : Yes
Used interface : Native Win32 interface for Win NT & 2000

Used output format : Internal WAV Routines
Sample format : 44.100 Hz; 16 Bit; Stereo

TOC of the extracted CD

Track | Start | Length | Start sector | End sector
---------------------------------------------------------
1 | 0:00.00 | 3:12.34 | 0 | 14433
2 | 3:12.34 | 7:00.39 | 14434 | 45972
3 | 10:12.73 | 5:56.67 | 45973 | 72739
4 | 16:09.65 | 5:11.40 | 72740 | 96104
5 | 21:21.30 | 8:41.72 | 96105 | 135251
6 | 30:03.27 | 14:03.26 | 135252 | 198502

Range status and errors

Selected range

Filename D:\Voida - Colour Me Darkness.wav

Peak level 100.0 %
Extraction speed 1.1 X
Range quality 99.9 %
Test CRC EC2C8069
Copy CRC EC2C8069
Copy OK

No errors occurred

AccurateRip summary

Track 1 not present in database
Track 2 not present in database
Track 3 not present in database
Track 4 not present in database
Track 5 not present in database
Track 6 not present in database

None of the tracks are present in the AccurateRip database

End of status report

==== Log checksum 5BABF5273FE1DC31062883A25E92613996075FC80ED4EFBA8F5C772A07CA7B1D ====
Якщо Ви справді бажаєте підтримати українське - після прослуховування, якщо музика вам сподобалась, придбайте ліцензійний диск. Підтримаймо вітчизняних виконавців!


Срібний реліз (на рейтинг впливає 50% завантаженого)
 Трекер:    Зареєстрований   

Завантажити / скачати українську музику



відео для новачків



 Зареєстрований:   2012-12-11 20:08
 Розмір:   249 MB 
 Оцінка музики:   10/10 (Голосів: 4)
   
Lev 
VIP


З нами з: 14.10.09
Востаннє: 05.12.16
Повідомлень: 1819

2012-12-11 20:26  

Ваш часовий пояс: GMT + 2 Години

Нова тема   Відповісти