Завантажити та скачати торренти українською


Органік - Соціум [EP] (2010) [FLAC] | Progressive Metal

Нові коментарі

Нова тема   Відповісти
Останній раз роздавалося Myfordownloads (2016-10-09)
Автор Повідомлення
muhomor 
VIP


З нами з: 04.12.11
Востаннє: 10.12.16
Повідомлень: 297

2012-12-09 22:58  
Органік - Соціум [EP] (2010) [FLAC] | Progressive Metal

Органік - Соціум [EP] (2010) [FLAC] | Progressive Metal


Стиль: Progressive Metal
Країна, місто: Україна, Київ
Сайти: myspace
Видавець: сам гурт
Виконавці:
Володимир «Муж!к» Кравчук — барабани
Сергій «Fry» Лисенко — бас
Єгор «Bombtrack» Акулов — гітара та ефекти
Максим «Amsterdam» Прудеус — вокал
Пісні:
    01. Що Є Я
    02. Пато.Логія
    03. Лист.Тобі?
    04. ВеснаВСтиліДиско
    05. Змінм.Ти-Світ
    06. Соц!ум
    Audiochecker

    AUDIOCHECKER v2.0 beta (build 457) - by Dester - [email protected]
    ~~~~~~~~~~~~~~~~~~~~~~~~~~~~~~~~~~

    Started at: воскресенье, 09. 12. 2012. - 22:53.53
    6 files found

    1 -===- D:\hurtom.com\Органік - «Соціум» [EP] (2010) (FLAC)\01 Органік Що Є Я.flac
    Extracted successfully
    Conclusion: this track is CDDA with probability 100%
    Tempfile successfully deleted.

    2 -===- D:\hurtom.com\Органік - «Соціум» [EP] (2010) (FLAC)\02 Органік Пато.Логія.flac
    Extracted successfully
    Conclusion: this track is CDDA with probability 100%
    Tempfile successfully deleted.

    3 -===- D:\hurtom.com\Органік - «Соціум» [EP] (2010) (FLAC)\03 Органік Лист.Тобі.flac
    Extracted successfully
    Conclusion: this track is CDDA with probability 100%
    Tempfile successfully deleted.

    4 -===- D:\hurtom.com\Органік - «Соціум» [EP] (2010) (FLAC)\04 Органік ВеснаВСтиліДиско.flac
    Extracted successfully
    Conclusion: this track is CDDA with probability 99%
    Tempfile successfully deleted.

    5 -===- D:\hurtom.com\Органік - «Соціум» [EP] (2010) (FLAC)\05 Органік Змінм.Ти-Світ.flac
    Extracted successfully
    Conclusion: this track is CDDA with probability 100%
    Tempfile successfully deleted.

    6 -===- D:\hurtom.com\Органік - «Соціум» [EP] (2010) (FLAC)\06 Органік Соц!ум.flac
    Extracted successfully
    Conclusion: this track is CDDA with probability 100%
    Tempfile successfully deleted.

    Finished at: воскресенье, 09. 12. 2012. - 22:56.36 (operation time: 0:02.43)
    Log


    Exact Audio Copy V1.0 beta 3 from 29. August 2011

    Отчёт EAC об извлечении, выполненном 9. декабря 2012, 22:35

    Органік / «Соціум» [EP]

    Дисковод: ASUS DRW-2014S1T Adapter: 2 ID: 8

    Режим чтения : Достоверность
    Использование точного потока : Да
    Отключение кэша аудио : Да
    Использование указателей C2 : Нет

    Коррекция смещения при чтении : 6
    Способность читать области Lead-in и Lead-out : Нет
    Заполнение пропущенных сэмплов тишиной : Да
    Удаление блоков с тишиной в начале и конце : Нет
    При вычислениях CRC использовались нулевые сэмплы : Да
    Интерфейс : Встроенный Win32-интерфейс для Win NT/2000
    Обработка зазоров : Добавлено к предыдущему треку

    Выходной формат : Пользовательский кодировщик
    Выбранный битрейт : 128 kBit/s
    Качество : Высокий
    Добавление ID3-тега : Нет
    Утилита сжатия : C:\Program Files\Exact Audio Copy\Flac\flac.exe
    Дополнительные параметры : -V -8 -T "Genre=%genre%" -T "Artist=%artist%" -T "Title=%title%" -T "Album=%albumtitle%" -T "Date=%year%" -T "Tracknumber=%tracknr%" -T "Comment=%comment%" %source%

    TOC извлечённого CD

    Трек | Старт | Длительность | Начальный сектор | Конечный сектор
    ---------------------------------------------------------------------
    1 | 0:00.00 | 3:27.23 | 0 | 15547
    2 | 3:27.23 | 2:30.37 | 15548 | 26834
    3 | 5:57.60 | 2:59.28 | 26835 | 40287
    4 | 8:57.13 | 5:11.13 | 40288 | 63625
    5 | 14:08.26 | 4:56.35 | 63626 | 85860
    6 | 19:04.61 | 4:06.09 | 85861 | 104319
    7 | 25:42.70 | 20:24.40 | 115720 | 207559

    Трек 1

    Имя файла D:\Documents and Settings\user\Рабочий стол\«»—0–\01 Органік Що Є Я.wav

    Длина предзазора 0:00:02.00

    Пиковый уровень 100.0 %
    Скорость извлечения 4.8 X
    Качество трека 100.0 %
    CRC теста E3F427A2
    CRC копии E3F427A2
    Копирование... OK

    Трек 2

    Имя файла D:\Documents and Settings\user\Рабочий стол\«»—0–\02 Органік Пато.Логія.wav

    Длина предзазора 0:00:02.00

    Пиковый уровень 100.0 %
    Скорость извлечения 4.9 X
    Качество трека 100.0 %
    CRC теста 6EB45C59
    CRC копии 6EB45C59
    Копирование... OK

    Трек 3

    Имя файла D:\Documents and Settings\user\Рабочий стол\«»—0–\03 Органік Лист.Тобі.wav

    Длина предзазора 0:00:02.00

    Пиковый уровень 100.0 %
    Скорость извлечения 5.5 X
    Качество трека 100.0 %
    CRC теста E89E72E8
    CRC копии E89E72E8
    Копирование... OK

    Трек 4

    Имя файла D:\Documents and Settings\user\Рабочий стол\«»—0–\04 Органік ВеснаВСтиліДиско.wav

    Длина предзазора 0:00:02.00

    Пиковый уровень 100.0 %
    Скорость извлечения 6.2 X
    Качество трека 100.0 %
    CRC теста C8EB2F48
    CRC копии C8EB2F48
    Копирование... OK

    Трек 5

    Имя файла D:\Documents and Settings\user\Рабочий стол\«»—0–\05 Органік Змінм.Ти-Світ.wav

    Длина предзазора 0:00:02.00

    Пиковый уровень 100.0 %
    Скорость извлечения 6.0 X
    Качество трека 99.9 %
    CRC теста 6790D189
    CRC копии 6790D189
    Копирование... OK

    Трек 6

    Имя файла D:\Documents and Settings\user\Рабочий стол\«»—0–\06 Органік Соц!ум.wav

    Длина предзазора 0:00:02.00

    Пиковый уровень 100.0 %
    Скорость извлечения 7.0 X
    Качество трека 100.0 %
    CRC теста F61661A5
    CRC копии F61661A5
    Копирование... OK

    Ошибок не произошло

    Конец отчёта

    ==== Контрольная сумма отчёта D0D9D2D7144FAEEAB81E59346E4FACFCF825953411C31EADE8ABDD0C0BB798BF ====

Тривалість: 00:23:09
Мова: українська
Аудіо-кодек: FLAC
Бітрейт: 1049 кб/с
Джерело: ріп із власного CD
Додаткова інформація:


Якщо Ви справді бажаєте підтримати українське - після прослуховування, якщо музика вам сподобалась, придбайте ліцензійний диск. Підтримаймо вітчизняних виконавців!


Срібний реліз (на рейтинг впливає 50% завантаженого)
 Трекер:    Зареєстрований   

Завантажити / скачати українську музику



відео для новачків



 Зареєстрований:   2012-12-09 22:58
 Розмір:   174 MB 
 Оцінка музики:   10/10 (Голосів: 2)
   
Ваш часовий пояс: GMT + 2 Години

Нова тема   Відповісти