Завантажити та скачати торренти українською


Вперше Чую - ПрямоТок (2011) [FLAC] | Rock / Acoustic

Нові коментарі

Нова тема   Відповісти
Автор Повідомлення
muhomor 
VIP


З нами з: 04.12.11
Востаннє: 29.11.16
Повідомлень: 297

2012-12-09 21:55  
Вперше Чую - ПрямоТок (2011) [FLAC] | Rock / Acoustic

Вперше Чую - ПрямоТок (2011) [FLAC] | Rock / Acoustic


Стиль: Acoustic Art Rock
Країна, місто: Україна, Київ
Сайти: Офіційний сайт
Видавець: Наш ФОРМАТ
Виконавці:
Григорій Вагапов - автор пісень, вокал, гітара, губна гармоніка;
Богдан Кутєпов - вокал, баян, сопілка;
Вадим Лежньов - барабани, перкусія, аранжування.
Пісні:
    01. Гімн Мотоклубу «Нічні Птахи»
    02. ЧоперОк
    03. Хто Він Перший
    04. Парень В Стиле Кантри
    05. Тристан
    06. Весна
    07. Горе-Не-Беда
    08. Нужен
    09. Сузукі Бандіт 400
    10. Море Моє Там
    11. Дуелянт
    Audiochecker

    AUDIOCHECKER v2.0 beta (build 457) - by Dester - [email protected]
    ~~~~~~~~~~~~~~~~~~~~~~~~~~~~~~~~~~

    Started at: воскресенье, 09. 12. 2012. - 21:44.18
    12 files found

    01 -===- D:\hurtom.com\Рольова Модель - «Scylla And Charybdis» (2010) (FLAC)\01 The Roll Models Liars Of The Season.flac
    Extracted successfully
    Conclusion: this track is CDDA with probability 99%
    Tempfile successfully deleted.

    02 -===- D:\hurtom.com\Рольова Модель - «Scylla And Charybdis» (2010) (FLAC)\02 The Roll Models Spectacular Adventure.flac
    Extracted successfully
    Conclusion: this track is CDDA with probability 100%
    Tempfile successfully deleted.

    03 -===- D:\hurtom.com\Рольова Модель - «Scylla And Charybdis» (2010) (FLAC)\03 The Roll Models Rebellious Kids.flac
    Extracted successfully
    Conclusion: this track is CDDA with probability 99%
    Tempfile successfully deleted.

    04 -===- D:\hurtom.com\Рольова Модель - «Scylla And Charybdis» (2010) (FLAC)\04 The Roll Models Fire In The Sky.flac
    Extracted successfully
    Conclusion: this track is CDDA with probability 99%
    Tempfile successfully deleted.

    05 -===- D:\hurtom.com\Рольова Модель - «Scylla And Charybdis» (2010) (FLAC)\05 The Roll Models One Of A Kind.flac
    Extracted successfully
    Conclusion: this track is CDDA with probability 100%
    Tempfile successfully deleted.

    06 -===- D:\hurtom.com\Рольова Модель - «Scylla And Charybdis» (2010) (FLAC)\06 The Roll Models In Everything.flac
    Extracted successfully
    Conclusion: this track is CDDA with probability 100%
    Tempfile successfully deleted.

    07 -===- D:\hurtom.com\Рольова Модель - «Scylla And Charybdis» (2010) (FLAC)\07 The Roll Models Sing, If You're Going Nowhere (Stone,Rock).flac
    Extracted successfully
    Conclusion: this track is CDDA with probability 100%
    Tempfile successfully deleted.

    08 -===- D:\hurtom.com\Рольова Модель - «Scylla And Charybdis» (2010) (FLAC)\08 The Roll Models Sirens Scream (Without A Sound).flac
    Extracted successfully
    Conclusion: this track is CDDA with probability 99%
    Tempfile successfully deleted.

    09 -===- D:\hurtom.com\Рольова Модель - «Scylla And Charybdis» (2010) (FLAC)\09 The Roll Models Waste Of Time.flac
    Extracted successfully
    Conclusion: this track is CDDA with probability 99%
    Tempfile successfully deleted.

    10 -===- D:\hurtom.com\Рольова Модель - «Scylla And Charybdis» (2010) (FLAC)\10 The Roll Models But The Night Is Always Darkest Just Before The Dawn.flac
    Extracted successfully
    Conclusion: this track is CDDA with probability 99%
    Tempfile successfully deleted.

    11 -===- D:\hurtom.com\Рольова Модель - «Scylla And Charybdis» (2010) (FLAC)\11 The Roll Models Next Level.flac
    Extracted successfully
    Conclusion: this track is CDDA with probability 100%
    Tempfile successfully deleted.

    12 -===- D:\hurtom.com\Рольова Модель - «Scylla And Charybdis» (2010) (FLAC)\12 The Roll Models Сьогодні Й Завжди.flac
    Extracted successfully
    Conclusion: this track is CDDA with probability 99%
    Tempfile successfully deleted.

    Finished at: воскресенье, 09. 12. 2012. - 21:48.49 (operation time: 0:04.31)
    Log


    Exact Audio Copy V1.0 beta 3 from 29. August 2011

    Отчёт EAC об извлечении, выполненном 9. декабря 2012, 21:32

    Вперше Чую / «ПрямоТок»

    Дисковод: ASUS DRW-2014S1T Adapter: 2 ID: 8

    Режим чтения : Достоверность
    Использование точного потока : Да
    Отключение кэша аудио : Да
    Использование указателей C2 : Нет

    Коррекция смещения при чтении : 0
    Способность читать области Lead-in и Lead-out : Нет
    Заполнение пропущенных сэмплов тишиной : Да
    Удаление блоков с тишиной в начале и конце : Нет
    При вычислениях CRC использовались нулевые сэмплы : Да
    Интерфейс : Встроенный Win32-интерфейс для Win NT/2000
    Обработка зазоров : Добавлено к предыдущему треку

    Выходной формат : Пользовательский кодировщик
    Выбранный битрейт : 128 kBit/s
    Качество : Высокий
    Добавление ID3-тега : Нет
    Утилита сжатия : C:\Program Files\Exact Audio Copy\Flac\flac.exe
    Дополнительные параметры : -V -8 -T "Genre=%genre%" -T "Artist=%artist%" -T "Title=%title%" -T "Album=%albumtitle%" -T "Date=%year%" -T "Tracknumber=%tracknr%" -T "Comment=%comment%" %source%

    TOC извлечённого CD

    Трек | Старт | Длительность | Начальный сектор | Конечный сектор
    ---------------------------------------------------------------------
    1 | 0:00.00 | 2:34.70 | 0 | 11619
    2 | 2:34.70 | 3:18.20 | 11620 | 26489
    3 | 5:53.15 | 2:20.41 | 26490 | 37030
    4 | 8:13.56 | 3:05.47 | 37031 | 50952
    5 | 11:19.28 | 3:49.40 | 50953 | 68167
    6 | 15:08.68 | 2:59.55 | 68168 | 81647
    7 | 18:08.48 | 3:07.33 | 81648 | 95705
    8 | 21:16.06 | 3:14.05 | 95706 | 110260
    9 | 24:30.11 | 3:28.50 | 110261 | 125910
    10 | 27:58.61 | 3:07.70 | 125911 | 140005
    11 | 31:06.56 | 4:44.07 | 140006 | 161312

    Трек 1

    Имя файла D:\Documents and Settings\user\Рабочий стол\«»—0–\01 Вперше Чую Гімн Мотоклубу «Нічні Птахи».wav

    Длина предзазора 0:00:02.00

    Пиковый уровень 100.0 %
    Скорость извлечения 4.6 X
    Качество трека 100.0 %
    CRC теста 65AF4128
    CRC копии 65AF4128
    Копирование... OK

    Трек 2

    Имя файла D:\Documents and Settings\user\Рабочий стол\«»—0–\02 Вперше Чую ЧоперОк.wav

    Длина предзазора 0:00:02.00

    Пиковый уровень 100.0 %
    Скорость извлечения 5.2 X
    Качество трека 100.0 %
    CRC теста D17AEC59
    CRC копии D17AEC59
    Копирование... OK

    Трек 3

    Имя файла D:\Documents and Settings\user\Рабочий стол\«»—0–\03 Вперше Чую Хто Він Перший.wav

    Длина предзазора 0:00:02.00

    Пиковый уровень 100.0 %
    Скорость извлечения 5.2 X
    Качество трека 100.0 %
    CRC теста A6014FD7
    CRC копии A6014FD7
    Копирование... OK

    Трек 4

    Имя файла D:\Documents and Settings\user\Рабочий стол\«»—0–\04 Вперше Чую Парень В Стиле Кантри.wav

    Длина предзазора 0:00:02.00

    Пиковый уровень 100.0 %
    Скорость извлечения 5.0 X
    Качество трека 99.9 %
    CRC теста 6858EC7B
    CRC копии 6858EC7B
    Копирование... OK

    Трек 5

    Имя файла D:\Documents and Settings\user\Рабочий стол\«»—0–\05 Вперше Чую Тристан.wav

    Длина предзазора 0:00:02.00

    Пиковый уровень 100.0 %
    Скорость извлечения 6.5 X
    Качество трека 100.0 %
    CRC теста 381A12AC
    CRC копии 381A12AC
    Копирование... OK

    Трек 6

    Имя файла D:\Documents and Settings\user\Рабочий стол\«»—0–\06 Вперше Чую Весна.wav

    Длина предзазора 0:00:02.00

    Пиковый уровень 100.0 %
    Скорость извлечения 6.5 X
    Качество трека 100.0 %
    CRC теста E3E269BE
    CRC копии E3E269BE
    Копирование... OK

    Трек 7

    Имя файла D:\Documents and Settings\user\Рабочий стол\«»—0–\07 Вперше Чую Горе-Не-Беда.wav

    Длина предзазора 0:00:02.00

    Пиковый уровень 100.0 %
    Скорость извлечения 6.9 X
    Качество трека 100.0 %
    CRC теста 71195296
    CRC копии 71195296
    Копирование... OK

    Трек 8

    Имя файла D:\Documents and Settings\user\Рабочий стол\«»—0–\08 Вперше Чую Нужен.wav

    Длина предзазора 0:00:02.00

    Пиковый уровень 100.0 %
    Скорость извлечения 7.2 X
    Качество трека 100.0 %
    CRC теста 706BD72A
    CRC копии 706BD72A
    Копирование... OK

    Трек 9

    Имя файла D:\Documents and Settings\user\Рабочий стол\«»—0–\09 Вперше Чую Сузукі Бандіт 400.wav

    Длина предзазора 0:00:02.00

    Пиковый уровень 100.0 %
    Скорость извлечения 7.6 X
    Качество трека 100.0 %
    CRC теста A975C02E
    CRC копии A975C02E
    Копирование... OK

    Трек 10

    Имя файла D:\Documents and Settings\user\Рабочий стол\«»—0–\10 Вперше Чую Море Моє Там.wav

    Длина предзазора 0:00:02.00

    Пиковый уровень 100.0 %
    Скорость извлечения 6.3 X
    Качество трека 99.9 %
    CRC теста AA2F56B2
    CRC копии AA2F56B2
    Копирование... OK

    Трек 11

    Имя файла D:\Documents and Settings\user\Рабочий стол\«»—0–\11 Вперше Чую Дуелянт.wav

    Длина предзазора 0:00:02.00

    Пиковый уровень 100.0 %
    Скорость извлечения 8.4 X
    Качество трека 100.0 %
    CRC теста AD24D2F7
    CRC копии AD24D2F7
    Копирование... OK

    Ошибок не произошло

    Конец отчёта

    ==== Контрольная сумма отчёта F351AFC47AC75399006ECC2EC4FD25E40742E97FC7805D7E00A32B5AC1DA9E04 ====

Тривалість: 00:35:47
Мова: українська (1-3, 5,6, 9-11), російська (4,7,8)
Аудіо-кодек: FLAC
Бітрейт: 994 кб/с
Джерело: ріп із власного CD


Срібний реліз (на рейтинг впливає 50% завантаженого)
 Трекер:    Зареєстрований   

Завантажити / скачати українську музику



відео для новачків



 Зареєстрований:   2012-12-09 21:55
 Розмір:   255 MB 
 Оцінка музики:   8.6/10 (Голосів: 8)
   
Ваш часовий пояс: GMT + 2 Години

Нова тема   Відповісти