Завантажити та скачати торренти українською


Онейроїд - Ходень (2012) [FLAC] | Alternative / Psychedelic Rock / Folk

Нові коментарі

Нова тема   Відповісти
Останній раз роздавалося Myfordownloads (2016-10-09)
Автор Повідомлення
muhomor 
VIP


З нами з: 04.12.11
Востаннє: 29.11.16
Повідомлень: 297

2012-12-09 21:08  
Онейроїд - Ходень (2012) [FLAC] | Alternative / Psychedelic Rock / Folk

Онейроїд - Ходень (2012) [FLAC] | Alternative / Psychedelic Rock / Folk


Стиль: Alternative / Psychedelic Rock / Folk
Країна, місто: Україна, Полтава
Видавець: Oneyro.Promo.Group.
Виконавці:
Андрій Боркунов - вокал
Оксана Дронова - вокал
Анатолій Волик - тексти
Фелікс Бродський - труба, флейта, сопілка
Валерій Власенко - гітара, перкусія, клавіші
Ігор Малюков - барабани
Андрій Орлов - клавіші
Максим Ржеко - бас-гітара
Пісні:
    01. Клавіатор
    02. Жнива
    03. Грудень
    04. Ходень
    05. Віорунь
    06. М.М.С.М.
    07. Куниця
    08. Віє війною
    09. Гори ще

    бонус-треки:
    10. Жнива (trip)
    11. Горище (dafanky deep mix)
    Audiochecker


    AUDIOCHECKER v2.0 beta (build 457) - by Dester - [email protected]
    ~~~~~~~~~~~~~~~~~~~~~~~~~~~~~~~~~~

    Started at: воскресенье, 09. 12. 2012. - 20:56.10
    11 files found

    01 -===- D:\hurtom.com\Онейроїд - «Ходень» (2012) (FLAC)\01 Онейроїд Клавіатор.flac
    Extracted successfully
    Conclusion: this track is MPEG with probability 100%
    Tempfile successfully deleted.

    02 -===- D:\hurtom.com\Онейроїд - «Ходень» (2012) (FLAC)\02 Онейроїд Жнива.flac
    Extracted successfully
    Conclusion: this track is MPEG with probability 95%
    Tempfile successfully deleted.

    03 -===- D:\hurtom.com\Онейроїд - «Ходень» (2012) (FLAC)\03 Онейроїд Грудень.flac
    Extracted successfully
    Conclusion: this track is MPEG with probability 95%
    Tempfile successfully deleted.

    04 -===- D:\hurtom.com\Онейроїд - «Ходень» (2012) (FLAC)\04 Онейроїд Ходень.flac
    Extracted successfully
    Conclusion: this track is CDDA with probability 100%
    Tempfile successfully deleted.

    05 -===- D:\hurtom.com\Онейроїд - «Ходень» (2012) (FLAC)\05 Онейроїд Віорунь.flac
    Extracted successfully
    Conclusion: this track is MPEG with probability 79%
    Tempfile successfully deleted.

    06 -===- D:\hurtom.com\Онейроїд - «Ходень» (2012) (FLAC)\06 Онейроїд М.М.С.М..flac
    Extracted successfully
    Conclusion: this track is MPEG with probability 95%
    Tempfile successfully deleted.

    07 -===- D:\hurtom.com\Онейроїд - «Ходень» (2012) (FLAC)\07 Онейроїд Куниця.flac
    Extracted successfully
    Conclusion: this track is MPEG with probability 79%
    Tempfile successfully deleted.

    08 -===- D:\hurtom.com\Онейроїд - «Ходень» (2012) (FLAC)\08 Онейроїд Віє Війною.flac
    Extracted successfully
    Conclusion: this track is MPEG with probability 98%
    Tempfile successfully deleted.

    09 -===- D:\hurtom.com\Онейроїд - «Ходень» (2012) (FLAC)\09 Онейроїд Гори Ще.flac
    Extracted successfully
    Conclusion: this track is MPEG with probability 95%
    Tempfile successfully deleted.

    10 -===- D:\hurtom.com\Онейроїд - «Ходень» (2012) (FLAC)\10 Онейроїд Жнива (trip) (bonus track).flac
    Extracted successfully
    Conclusion: this track is MPEG with probability 95%
    Tempfile successfully deleted.

    11 -===- D:\hurtom.com\Онейроїд - «Ходень» (2012) (FLAC)\11 Онейроїд Горище (dafanky deep mix) (bonus track).flac
    Extracted successfully
    Conclusion: this track is MPEG with probability 73%
    Tempfile successfully deleted.

    Finished at: воскресенье, 09. 12. 2012. - 21:00.54 (operation time: 0:04.43)
    Log

    Exact Audio Copy V1.0 beta 3 from 29. August 2011

    Отчёт EAC об извлечении, выполненном 9. декабря 2012, 20:55

    Онейроїд / «Ходень»

    Дисковод: ASUS DRW-2014S1T Adapter: 2 ID: 8

    Режим чтения : Достоверность
    Использование точного потока : Да
    Отключение кэша аудио : Да
    Использование указателей C2 : Нет

    Коррекция смещения при чтении : 0
    Способность читать области Lead-in и Lead-out : Нет
    Заполнение пропущенных сэмплов тишиной : Да
    Удаление блоков с тишиной в начале и конце : Нет
    При вычислениях CRC использовались нулевые сэмплы : Да
    Интерфейс : Встроенный Win32-интерфейс для Win NT/2000
    Обработка зазоров : Добавлено к предыдущему треку

    Выходной формат : Пользовательский кодировщик
    Выбранный битрейт : 128 kBit/s
    Качество : Высокий
    Добавление ID3-тега : Нет
    Утилита сжатия : C:\Program Files\Exact Audio Copy\Flac\flac.exe
    Дополнительные параметры : -V -8 -T "Genre=%genre%" -T "Artist=%artist%" -T "Title=%title%" -T "Album=%albumtitle%" -T "Date=%year%" -T "Tracknumber=%tracknr%" -T "Comment=%comment%" %source%

    TOC извлечённого CD

    Трек | Старт | Длительность | Начальный сектор | Конечный сектор
    ---------------------------------------------------------------------
    1 | 0:00.00 | 4:38.52 | 0 | 20901
    2 | 4:38.52 | 6:02.26 | 20902 | 48077
    3 | 10:41.03 | 3:28.63 | 48078 | 63740
    4 | 14:09.66 | 3:12.72 | 63741 | 78212
    5 | 17:22.63 | 3:39.51 | 78213 | 94688
    6 | 21:02.39 | 4:48.54 | 94689 | 116342
    7 | 25:51.18 | 4:41.24 | 116343 | 137441
    8 | 30:32.42 | 2:49.37 | 137442 | 150153
    9 | 33:22.04 | 4:53.36 | 150154 | 172164
    10 | 38:15.40 | 6:05.27 | 172165 | 199566
    11 | 44:20.67 | 4:54.06 | 199567 | 221622

    Трек 1

    Имя файла D:\Documents and Settings\user\Рабочий стол\«»—0–\01 Онейроїд Клавіатор.wav

    Длина предзазора 0:00:02.00

    Пиковый уровень 97.4 %
    Скорость извлечения 5.2 X
    Качество трека 100.0 %
    CRC теста BE062775
    CRC копии BE062775
    Копирование... OK

    Трек 2

    Имя файла D:\Documents and Settings\user\Рабочий стол\«»—0–\02 Онейроїд Жнива.wav

    Длина предзазора 0:00:02.00

    Пиковый уровень 99.3 %
    Скорость извлечения 6.1 X
    Качество трека 100.0 %
    CRC теста 0448BDD5
    CRC копии 0448BDD5
    Копирование... OK

    Трек 3

    Имя файла D:\Documents and Settings\user\Рабочий стол\«»—0–\03 Онейроїд Грудень.wav

    Длина предзазора 0:00:02.00

    Пиковый уровень 99.3 %
    Скорость извлечения 5.4 X
    Качество трека 99.9 %
    CRC теста E637D530
    CRC копии E637D530
    Копирование... OK

    Трек 4

    Имя файла D:\Documents and Settings\user\Рабочий стол\«»—0–\04 Онейроїд Ходень.wav

    Длина предзазора 0:00:02.00

    Пиковый уровень 99.3 %
    Скорость извлечения 6.5 X
    Качество трека 100.0 %
    CRC теста F6030C55
    CRC копии F6030C55
    Копирование... OK

    Трек 5

    Имя файла D:\Documents and Settings\user\Рабочий стол\«»—0–\05 Онейроїд Віорунь.wav

    Длина предзазора 0:00:02.00

    Пиковый уровень 99.3 %
    Скорость извлечения 6.9 X
    Качество трека 100.0 %
    CRC теста 69BFDBE4
    CRC копии 69BFDBE4
    Копирование... OK

    Трек 6

    Имя файла D:\Documents and Settings\user\Рабочий стол\«»—0–\06 Онейроїд М.М.С.М..wav

    Длина предзазора 0:00:02.00

    Пиковый уровень 99.3 %
    Скорость извлечения 7.6 X
    Качество трека 100.0 %
    CRC теста 94FF899B
    CRC копии 94FF899B
    Копирование... OK

    Трек 7

    Имя файла D:\Documents and Settings\user\Рабочий стол\«»—0–\07 Онейроїд Куниця.wav

    Длина предзазора 0:00:02.00

    Пиковый уровень 99.3 %
    Скорость извлечения 8.0 X
    Качество трека 100.0 %
    CRC теста 172CE76D
    CRC копии 172CE76D
    Копирование... OK

    Трек 8

    Имя файла D:\Documents and Settings\user\Рабочий стол\«»—0–\08 Онейроїд Віє Війною.wav

    Длина предзазора 0:00:02.00

    Пиковый уровень 99.3 %
    Скорость извлечения 7.7 X
    Качество трека 100.0 %
    CRC теста 4A452E57
    CRC копии 4A452E57
    Копирование... OK

    Трек 9

    Имя файла D:\Documents and Settings\user\Рабочий стол\«»—0–\09 Онейроїд Гори Ще.wav

    Длина предзазора 0:00:02.00

    Пиковый уровень 99.3 %
    Скорость извлечения 7.6 X
    Качество трека 99.9 %
    CRC теста E776F380
    CRC копии E776F380
    Копирование... OK

    Трек 10

    Имя файла D:\Documents and Settings\user\Рабочий стол\«»—0–\10 Онейроїд Жнива (trip) (bonus track).wav

    Длина предзазора 0:00:02.00

    Пиковый уровень 99.3 %
    Скорость извлечения 9.4 X
    Качество трека 100.0 %
    CRC теста 1BE16AF0
    CRC копии 1BE16AF0
    Копирование... OK

    Трек 11

    Имя файла D:\Documents and Settings\user\Рабочий стол\«»—0–\11 Онейроїд Горище (dafanky deep mix) (bonus track).wav

    Длина предзазора 0:00:02.00

    Пиковый уровень 99.3 %
    Скорость извлечения 9.5 X
    Качество трека 100.0 %
    CRC теста 45AD5BD6
    CRC копии 45AD5BD6
    Копирование... OK

    Ошибок не произошло

    Конец отчёта

    ==== Контрольная сумма отчёта 3F8F5638C7A70003D8FA69DC21750BC29FC547E3FA3919D9981B7959BCCB41DD ====

Тривалість: 00:49:10
Мова: німецька (1), українська (1-11)
Аудіо-кодек: FLAC
Бітрейт: 971 кб/с
Джерело: ріп із власного CD
Додаткова інформація:
послухати альбом онлайн


Якщо Ви справді бажаєте підтримати українське - після прослуховування, якщо музика вам сподобалась, придбайте ліцензійний диск. Підтримаймо вітчизняних виконавців!


Срібний реліз (на рейтинг впливає 50% завантаженого)
 Трекер:    Зареєстрований   

Завантажити / скачати українську музику



відео для новачків



 Зареєстрований:   2012-12-09 21:08
 Розмір:   342 MB 
 Оцінка музики:   10/10 (Голосів: 5)
   
ssTAss 
Модератор музики


З нами з: 05.07.08
Востаннє: 03.12.16
Повідомлень: 10930

2012-12-09 21:14  
muhomor написано:
Коррекция смещения при чтении : 0

не бажаєте виставити корекцію зміщення для отримання точного ріпу?

Lev 
VIP


З нами з: 14.10.09
Востаннє: 28.11.16
Повідомлень: 1819

2012-12-09 22:30  
вкиньте якісну обкладинку сюди, на бендкемпі ж є.

якщо є бажання поповнити свою колекцію дисків і водночас підтримати групу, звертайтесь на мейл oneyroid_band[at]ukr.net

Ваш часовий пояс: GMT + 2 Години

Нова тема   Відповісти