Завантажити та скачати торренти українською


Рольова Модель - Scylla And Charybdis (2010) [FLAC] | Pop Punk

Нові коментарі

Нова тема   Відповісти
Останній раз роздавалося Myfordownloads (2016-10-09)
Автор Повідомлення
muhomor 
VIP


З нами з: 04.12.11
Востаннє: 10.12.16
Повідомлень: 297

2012-12-09 19:08  
Рольова Модель - Scylla And Charybdis (2010) [FLAC] | Pop Punk

Рольова Модель - Scylla And Charybdis (2010) [FLAC] | Pop Punk


Стиль: Pop Punk
Країна, місто: Україна, Київ
Сайти: Офіційний сайт
Видавець: MOON Records
Виконавці:
Михайло Корчовий – вокал, гітара
Олександр Скрипка – вокал, гітара
Сергій Руденко – бас
Сергій Стефанюк – ударні
Пісні:
    01. Liars Of The Season
    02. Spectacular Adventure
    03. Rebellious Kids
    04. Fire In The Sky
    05. One Of A Kind
    06. In Everything
    07. Sing, If You're Going Nowhere (Stone/Rock)
    08. Sirens Scream (Without A Sound)
    09. Waste Of Time
    10. But The Night Is Always Darkest Just Before The Dawn
    11. Next Level
    12. Сьогодні Й Завжди
    Audiochecker


    AUDIOCHECKER v2.0 beta (build 457) - by Dester - [email protected]
    ~~~~~~~~~~~~~~~~~~~~~~~~~~~~~~~~~~

    Started at: воскресенье, 09. 12. 2012. - 18:56.13
    12 files found

    01 -===- D:\hurtom.com\Рольова Модель - «Scylla And Charybdis» (2010) (FLAC)\01 The Roll Models Liars Of The Season.flac
    Extracted successfully
    Conclusion: this track is CDDA with probability 99%
    Tempfile successfully deleted.

    02 -===- D:\hurtom.com\Рольова Модель - «Scylla And Charybdis» (2010) (FLAC)\02 The Roll Models Spectacular Adventure.flac
    Extracted successfully
    Conclusion: this track is CDDA with probability 100%
    Tempfile successfully deleted.

    03 -===- D:\hurtom.com\Рольова Модель - «Scylla And Charybdis» (2010) (FLAC)\03 The Roll Models Rebellious Kids.flac
    Extracted successfully
    Conclusion: this track is CDDA with probability 99%
    Tempfile successfully deleted.

    04 -===- D:\hurtom.com\Рольова Модель - «Scylla And Charybdis» (2010) (FLAC)\04 The Roll Models Fire In The Sky.flac
    Extracted successfully
    Conclusion: this track is CDDA with probability 99%
    Tempfile successfully deleted.

    05 -===- D:\hurtom.com\Рольова Модель - «Scylla And Charybdis» (2010) (FLAC)\05 The Roll Models One Of A Kind.flac
    Extracted successfully
    Conclusion: this track is CDDA with probability 100%
    Tempfile successfully deleted.

    06 -===- D:\hurtom.com\Рольова Модель - «Scylla And Charybdis» (2010) (FLAC)\06 The Roll Models In Everything.flac
    Extracted successfully
    Conclusion: this track is CDDA with probability 100%
    Tempfile successfully deleted.

    07 -===- D:\hurtom.com\Рольова Модель - «Scylla And Charybdis» (2010) (FLAC)\07 The Roll Models Sing, If You're Going Nowhere (Stone,Rock).flac
    Extracted successfully
    Conclusion: this track is CDDA with probability 100%
    Tempfile successfully deleted.

    08 -===- D:\hurtom.com\Рольова Модель - «Scylla And Charybdis» (2010) (FLAC)\08 The Roll Models Sirens Scream (Without A Sound).flac
    Extracted successfully
    Conclusion: this track is CDDA with probability 99%
    Tempfile successfully deleted.

    09 -===- D:\hurtom.com\Рольова Модель - «Scylla And Charybdis» (2010) (FLAC)\09 The Roll Models Waste Of Time.flac
    Extracted successfully
    Conclusion: this track is CDDA with probability 99%
    Tempfile successfully deleted.

    10 -===- D:\hurtom.com\Рольова Модель - «Scylla And Charybdis» (2010) (FLAC)\10 The Roll Models But The Night Is Always Darkest Just Before The Dawn.flac
    Extracted successfully
    Conclusion: this track is CDDA with probability 99%
    Tempfile successfully deleted.

    11 -===- D:\hurtom.com\Рольова Модель - «Scylla And Charybdis» (2010) (FLAC)\11 The Roll Models Next Level.flac
    Extracted successfully
    Conclusion: this track is CDDA with probability 100%
    Tempfile successfully deleted.

    12 -===- D:\hurtom.com\Рольова Модель - «Scylla And Charybdis» (2010) (FLAC)\12 The Roll Models Сьогодні Й Завжди.flac
    Extracted successfully
    Conclusion: this track is CDDA with probability 99%
    Tempfile successfully deleted.

    Finished at: воскресенье, 09. 12. 2012. - 19:00.30 (operation time: 0:04.17)
    Log


    Exact Audio Copy V1.0 beta 3 from 29. August 2011

    Отчёт EAC об извлечении, выполненном 9. декабря 2012, 18:34

    Рольова Модель / «Scylla And Charybdis»

    Дисковод: ASUS DRW-2014S1T Adapter: 2 ID: 8

    Режим чтения : Достоверность
    Использование точного потока : Да
    Отключение кэша аудио : Да
    Использование указателей C2 : Нет

    Коррекция смещения при чтении : 0
    Способность читать области Lead-in и Lead-out : Нет
    Заполнение пропущенных сэмплов тишиной : Да
    Удаление блоков с тишиной в начале и конце : Нет
    При вычислениях CRC использовались нулевые сэмплы : Да
    Интерфейс : Встроенный Win32-интерфейс для Win NT/2000
    Обработка зазоров : Не обнаружено, добавлено к предыдущему треку

    Выходной формат : Пользовательский кодировщик
    Выбранный битрейт : 128 kBit/s
    Качество : Высокий
    Добавление ID3-тега : Нет
    Утилита сжатия : C:\Program Files\Exact Audio Copy\Flac\flac.exe
    Дополнительные параметры : -V -8 -T "Genre=%genre%" -T "Artist=%artist%" -T "Title=%title%" -T "Album=%albumtitle%" -T "Date=%year%" -T "Tracknumber=%tracknr%" -T "Comment=%comment%" %source%

    TOC извлечённого CD

    Трек | Старт | Длительность | Начальный сектор | Конечный сектор
    ---------------------------------------------------------------------
    1 | 0:00.00 | 2:42.30 | 0 | 12179
    2 | 2:42.30 | 3:10.49 | 12180 | 26478
    3 | 5:53.04 | 3:05.66 | 26479 | 40419
    4 | 8:58.70 | 3:14.10 | 40420 | 54979
    5 | 12:13.05 | 3:43.28 | 54980 | 71732
    6 | 15:56.33 | 3:53.32 | 71733 | 89239
    7 | 19:49.65 | 3:44.65 | 89240 | 106104
    8 | 23:34.55 | 3:08.53 | 106105 | 120257
    9 | 26:43.33 | 4:18.48 | 120258 | 139655
    10 | 31:02.06 | 3:47.22 | 139656 | 156702
    11 | 34:49.28 | 3:30.19 | 156703 | 172471
    12 | 38:19.47 | 4:04.61 | 172472 | 190832

    Трек 1

    Имя файла D:\Documents and Settings\user\Рабочий стол\«»—0–\01 The Roll Models Liars Of The Season.wav

    Пиковый уровень 99.8 %
    Скорость извлечения 4.7 X
    Качество трека 100.0 %
    CRC теста 0007275F
    CRC копии 0007275F
    Копирование... OK

    Трек 2

    Имя файла D:\Documents and Settings\user\Рабочий стол\«»—0–\02 The Roll Models Spectacular Adventure.wav

    Пиковый уровень 99.8 %
    Скорость извлечения 5.3 X
    Качество трека 100.0 %
    CRC теста 250B7019
    CRC копии 250B7019
    Копирование... OK

    Трек 3

    Имя файла D:\Documents and Settings\user\Рабочий стол\«»—0–\03 The Roll Models Rebellious Kids.wav

    Пиковый уровень 99.8 %
    Скорость извлечения 5.6 X
    Качество трека 100.0 %
    CRC теста DC0FB61D
    CRC копии DC0FB61D
    Копирование... OK

    Трек 4

    Имя файла D:\Documents and Settings\user\Рабочий стол\«»—0–\04 The Roll Models Fire In The Sky.wav

    Пиковый уровень 99.8 %
    Скорость извлечения 5.9 X
    Качество трека 100.0 %
    CRC теста C4C9B5CF
    CRC копии C4C9B5CF
    Копирование... OK

    Трек 5

    Имя файла D:\Documents and Settings\user\Рабочий стол\«»—0–\05 The Roll Models One Of A Kind.wav

    Пиковый уровень 99.8 %
    Скорость извлечения 6.5 X
    Качество трека 100.0 %
    CRC теста CEEAE95C
    CRC копии CEEAE95C
    Копирование... OK

    Трек 6

    Имя файла D:\Documents and Settings\user\Рабочий стол\«»—0–\06 The Roll Models In Everything.wav

    Пиковый уровень 100.0 %
    Скорость извлечения 6.9 X
    Качество трека 100.0 %
    CRC теста 289ACCF9
    CRC копии 289ACCF9
    Копирование... OK

    Трек 7

    Имя файла D:\Documents and Settings\user\Рабочий стол\«»—0–\07 The Roll Models Sing, If You're Going Nowhere (Stone,Rock).wav

    Пиковый уровень 100.0 %
    Скорость извлечения 7.3 X
    Качество трека 100.0 %
    CRC теста 080D6266
    CRC копии 080D6266
    Копирование... OK

    Трек 8

    Имя файла D:\Documents and Settings\user\Рабочий стол\«»—0–\08 The Roll Models Sirens Scream (Without A Sound).wav

    Пиковый уровень 99.8 %
    Скорость извлечения 7.4 X
    Качество трека 100.0 %
    CRC теста 871488F0
    CRC копии 871488F0
    Копирование... OK

    Трек 9

    Имя файла D:\Documents and Settings\user\Рабочий стол\«»—0–\09 The Roll Models Waste Of Time.wav

    Пиковый уровень 100.0 %
    Скорость извлечения 7.2 X
    Качество трека 99.9 %
    CRC теста D122AB6B
    CRC копии D122AB6B
    Копирование... OK

    Трек 10

    Имя файла D:\Documents and Settings\user\Рабочий стол\«»—0–\10 The Roll Models But The Night Is Always Darkest Just Before The Dawn.wav

    Пиковый уровень 99.8 %
    Скорость извлечения 8.1 X
    Качество трека 100.0 %
    CRC теста 58162C13
    CRC копии 58162C13
    Копирование... OK

    Трек 11

    Имя файла D:\Documents and Settings\user\Рабочий стол\«»—0–\11 The Roll Models Next Level.wav

    Пиковый уровень 100.0 %
    Скорость извлечения 8.5 X
    Качество трека 100.0 %
    CRC теста DD0DA725
    CRC копии DD0DA725
    Копирование... OK

    Трек 12

    Имя файла D:\Documents and Settings\user\Рабочий стол\«»—0–\12 The Roll Models Сьогодні Й Завжди.wav

    Пиковый уровень 100.0 %
    Скорость извлечения 9.0 X
    Качество трека 100.0 %
    CRC теста EDDA1484
    CRC копии EDDA1484
    Копирование... OK

    Ошибок не произошло

    Конец отчёта

    ==== Контрольная сумма отчёта B7CDEB9865CC1A695EC852BD7CF72C7F7468EE77FCBB10853885C561CDFFB3D8 ====

Тривалість: 00:42:18
Мова: англійська (1–11), українська (12)
Аудіо-кодек: FLAC
Бітрейт: 989 кб/с
Джерело: ріп із власного CD
Додаткова інформація:
Цей альбом – результат зусиль, у який група вклала величезну кількість сил, записувала більше року і до якого йшла майже 4 роки.
Робота над релізом велася в студії поетапно – основна її частина була виконана вже навесні 2010-го, коли більш ніж з 20 пісень було відібрано 12 і вже було зрозуміло, як саме буде звучати альбом. Мастеринг пісень робився на лондонській студії "Metropolis", де працювали такі групи як Oasis, Muse, Мумий Тролль (і безліч інших відомих музикантів і команд).

За словами фронтмена групи Михайла Корчевого, альбом було вирішено назвати на честь двох морських чудовиськ з твору Гомера «Одисея» (вони зустрічалися і в інших давньогрецьких міфах). Як відомо, ситуація з Одисеєм стала крилатим висловом.

"Перебувати між Сциллою і Харибдою означає безвихідне становище, коли неминуча загибель загрожує відразу з кількох сторін. Ми якраз пройшли між Сциллою і Харибдою, вціліли, стали сильнішими", – сказали музиканти.


Якщо Ви справді бажаєте підтримати українське - після прослуховування, якщо музика вам сподобалась, придбайте ліцензійний диск. Підтримаймо вітчизняних виконавців!


Срібний реліз (на рейтинг впливає 50% завантаженого)
 Трекер:    Зареєстрований   

Завантажити / скачати українську музику



відео для новачків



 Зареєстрований:   2012-12-09 19:08
 Розмір:   300 MB 
 Оцінка музики:   10/10 (Голосів: 1)
   
ssTAss 
Модератор музики


З нами з: 05.07.08
Востаннє: 10.12.16
Повідомлень: 10950

2012-12-09 20:21  
muhomor написано:
Коррекция смещения при чтении : 0

бачу, Ви так і не змінили цього параметру
для Вашого асуса має бути +6

Ваш часовий пояс: GMT + 2 Години

Нова тема   Відповісти