Завантажити та скачати торренти українською


Orkiestra Sw. Mikolaja - Muzyka gór (2007) [FLAC] | Ethno / Folk

Нові коментарі

Нова тема   Відповісти
Останній раз роздавалося Myfordownloads (2016-10-05)
Автор Повідомлення
ssTAss 
Модератор музики


З нами з: 05.07.08
Востаннє: 10.12.16
Повідомлень: 10950

2012-12-09 16:46  
Orkiestra Sw. Mikolaja - Muzyka gór (2007) [FLAC] | Ethno / Folk

Orkiestra Sw. Mikolaja - Muzyka gór (2007) [FLAC] | Ethno / Folk


Стиль: Ethno Folk
Країна, місто: Польща, Люблін
Сайти: Офіційний сайт
Видавець: KONADOR
Виконавці:
Orkiestra Sw. Mikolaja
Asia Grzywaczewska - вокал
Ula Kalita - сопілка, окаріна
Asia Kolińska - вокал
Iza Kuruś - вокал (соло - 5)
Agnieszka Matecka - ангел-охоронець гурту
Bożka Pawlikowska - вокал (соло - 6, 9)
Elka Rojek - вокал
Agata Rojek - вокал
Hania Różyc - вокал, цитра
Agnieszka Śnieżko "Śnieżka" - вокал (соло - 4)
Marek Andrzejewski - бас, балалайка, казу, вокал
Bogdan Bracha - сопілка, флейта, окаріна, вокал (шаман гурту)
Rafał Cichowski - акордеон, варган, вокал
Maciek Filipczuk - гітара, скрипка, вокал (соло - 8)
Sławek Mazgajczyk - домра, вокал
Marcin Mrowca - балалайка, цимбали, вокал (соло - 8)
Grzesiek Struski - мандоліна
Jurek Szymula - перкусія
Пісні:
    01 - Wiązanka Kołomyjek (Huculszczyzna)
    02 - Dobri W Hamerycy (Piosenka Emigrantów Łemkowskich)
    03 - Ej, Kroczkom Koni Kroczkom (Ludowa Piosenka Z Łemkowszczyzny)
    04 - A Czyja To Chyża (Ludowa Piosenka Z Łemkowszczyzny)
    05 - Niczeńka (Piosenka Ukraińska)
    06 - Swobodna Nuta (Melodie Z Huculszczyzny)
    07 - Ballada O Św. Mikołaju (Sł. I Muz. Andrzej Wierzbicki)
    08 - Hej, Na Holi (Piosenka Z Beskidu Wyspowego)
    09 - Na Potoczku-M Prała (Ludowa Piosenka Z Rusi Zakarpackiej)
    10 - Zagrejcie Mi Do Kółeczka (Piosenka Z Beskidu Sądeckiego)
    11 - Tam U Lisi (Ludowa Piosenka Z Huculszczyzny)
    12 - Zahrajte Mi Huszli (Piosenka Łemkowska)
    Bonus:
    13 - Czom Ty Ne Pryjszol (Piosenka Ukraińska)
    14 - Koło Mojoj Zahradoczky (Piosenka Łemkowska)
    15 - Czorni Oczka (Piosenka Ukraińska)
log
Exact Audio Copy V0.99 prebeta 1 from 25. May 2007

EAC extraction logfile from 6. October 2007, 14:27

Orkiestra p.w. sw. Mikolaja / Muzyka Gor

Used drive : HL-DT-STDVD-ROM GDR8164B Adapter: 1 ID: 1

Read mode : Secure
Utilize accurate stream : Yes
Defeat audio cache : Yes
Make use of C2 pointers : No

Read offset correction : 102
Overread into Lead-In and Lead-Out : No
Fill up missing offset samples with silence : Yes
Delete leading and trailing silent blocks : No
Used interface : Native Win32 interface for Win NT & 2000
Gap handling : Appended to previous track

Used output format : User Defined Encoder
Selected bitrate : 128 kBit/s
Quality : High
Add ID3 tag : No
Command line compressor : c:\Program Files\FLAC\flac.exe
Additional command line options : -8 -V -T "ARTIST=%a" -T "TITLE=%t" -T "ALBUM=%g" -T "DATE=%y" -T "TRACKNUMBER=%n" -T "GENRE=%m" -T "COMMENT=EAC FLAC -8" %s

TOC of the extracted CD

Track | Start | Length | Start sector | End sector
---------------------------------------------------------
1 | 0:00.00 | 4:27.53 | 0 | 20077
2 | 4:27.53 | 3:53.00 | 20078 | 37552
3 | 8:20.53 | 2:36.33 | 37553 | 49285
4 | 10:57.11 | 2:01.60 | 49286 | 58420
5 | 12:58.71 | 5:49.60 | 58421 | 84655
6 | 18:48.56 | 1:46.60 | 84656 | 92665
7 | 20:35.41 | 4:06.71 | 92666 | 111186
8 | 24:42.37 | 2:04.74 | 111187 | 120560
9 | 26:47.36 | 2:13.39 | 120561 | 130574
10 | 29:01.00 | 2:18.45 | 130575 | 140969
11 | 31:19.45 | 5:07.02 | 140970 | 163996
12 | 36:26.47 | 4:16.07 | 163997 | 183203
13 | 40:42.54 | 5:16.42 | 183204 | 206945
14 | 45:59.21 | 3:21.05 | 206946 | 222025
15 | 49:20.26 | 2:36.06 | 222026 | 233731

Track 1

Filename h:\ogg\01 - Wiazanka kolomyjek.wav

Pre-gap length 0:00:02.00

Peak level 98.8 %
Track quality 100.0 %
Test CRC 8D0D21D2
Copy CRC 8D0D21D2
Copy OK

Track 2

Filename h:\ogg\02 - Dobri w Hamerycy.wav

Pre-gap length 0:00:02.00

Peak level 98.8 %
Track quality 100.0 %
Test CRC 206452BA
Copy CRC 206452BA
Copy OK

Track 3

Filename h:\ogg\03 - Ej, kroczkom koni kroczkom.wav

Pre-gap length 0:00:02.00

Peak level 98.8 %
Track quality 100.0 %
Test CRC 8E875A41
Copy CRC 8E875A41
Copy OK

Track 4

Filename h:\ogg\04 - A czyja to chyza.wav

Pre-gap length 0:00:02.00

Peak level 98.8 %
Track quality 100.0 %
Test CRC 26F06C95
Copy CRC 26F06C95
Copy OK

Track 5

Filename h:\ogg\05 - Niczenka.wav

Pre-gap length 0:00:02.00

Peak level 98.8 %
Track quality 100.0 %
Test CRC 4F03181F
Copy CRC 4F03181F
Copy OK

Track 6

Filename h:\ogg\06 - Swobodna nuta.wav

Pre-gap length 0:00:02.00

Peak level 98.8 %
Track quality 100.0 %
Test CRC 09722162
Copy CRC 09722162
Copy OK

Track 7

Filename h:\ogg\07 - Ballada o sw. Mikolaju.wav

Pre-gap length 0:00:02.00

Peak level 98.8 %
Track quality 100.0 %
Test CRC 229BD434
Copy CRC 229BD434
Copy OK

Track 8

Filename h:\ogg\08 - Hej na holi.wav

Pre-gap length 0:00:02.00

Peak level 98.8 %
Track quality 100.0 %
Test CRC 77AACB74
Copy CRC 77AACB74
Copy OK

Track 9

Filename h:\ogg\09 - Na potoczku-m prala.wav

Pre-gap length 0:00:02.00

Peak level 98.8 %
Track quality 100.0 %
Test CRC 49A82906
Copy CRC 49A82906
Copy OK

Track 10

Filename h:\ogg\10 - Zagrejcie mi do koleczka.wav

Pre-gap length 0:00:02.00

Peak level 98.8 %
Track quality 100.0 %
Test CRC 763154A6
Copy CRC 763154A6
Copy OK

Track 11

Filename h:\ogg\11 - Tam u lisi.wav

Pre-gap length 0:00:02.00

Peak level 98.8 %
Track quality 100.0 %
Test CRC 8D569F9A
Copy CRC 8D569F9A
Copy OK

Track 12

Filename h:\ogg\12 - Zahrajte mi huszli.wav

Pre-gap length 0:00:02.00

Peak level 98.8 %
Track quality 100.0 %
Test CRC 4A33E4F2
Copy CRC 4A33E4F2
Copy OK

Track 13

Filename h:\ogg\13 - Czom ty ne pryjszow.wav

Pre-gap length 0:00:02.00

Peak level 98.8 %
Track quality 100.0 %
Test CRC 5FD32032
Copy CRC 5FD32032
Copy OK

Track 14

Filename h:\ogg\14 - Kolo mojoj zahradoczky.wav

Pre-gap length 0:00:02.00

Peak level 98.8 %
Track quality 100.0 %
Test CRC E52A8622
Copy CRC E52A8622
Copy OK

Track 15

Filename h:\ogg\15 - Czorni oczka.wav

Pre-gap length 0:00:02.00

Peak level 98.8 %
Track quality 99.9 %
Test CRC BB211D4E
Copy CRC BB211D4E
Copy OK

No errors occurred

End of status report
fooCDtect
fooCDtect - foobar2000 + auCDtect, baralgin.

auCDtect: CD records authenticity detector, version 0.8.2
Copyright (c) 2004 Oleg Berngardt. All rights reserved.
Copyright (c) 2004 Alexander Djourik. All rights reserved.

mode: 0

===========================================
Track: 01 - Wiazanka kolomyjek
Quality: CDDA 100%
===========================================
Track: 02 - Dobri w Hamerycy
Quality: CDDA 100%
===========================================
Track: 03 - Ej, Kroczkom koni kroczkom
Quality: CDDA 99%
===========================================
Track: 04 - A czyja to chyza
Quality: CDDA 100%
===========================================
Track: 05 - Oj, ty Niczenko
Quality: CDDA 99%
===========================================
Track: 06 - Swobodna nuta
Quality: CDDA 100%
===========================================
Track: 07 - Ballada o sw. Mikolaju
Quality: CDDA 100%
===========================================
Track: 08 - Hej, na holi
Quality: CDDA 100%
===========================================
Track: 09 - Na potoczku-m prala
Quality: CDDA 100%
===========================================
Track: 10 - Zagrejcie mi do koleczka
Quality: CDDA 100%
===========================================
Track: 11 - Tam u lisi
Quality: CDDA 100%
===========================================
Track: 12 - Zahrajte mi huszli
Quality: CDDA 100%
===========================================
Track: 13 - Czom Ty ne pryjszow
Quality: CDDA 100%
===========================================
Track: 14 - Kolo mojoj zahradoczky
Quality: CDDA 100%
===========================================
Track: 15 - Czorni oczka
Quality: CDDA 100%
===========================================
Тривалість: 00:51:56
Мова: українська (лемківська говірка)
Аудіо-кодек: FLAC
Бітрейт: 795 кб/с
Джерело: польський трекер (зібрав в образ, поправив куе)
Додаткова інформація:
польською
muzyka gór

mc 1992
reedycja cd 2007

"...Na początku nie było gór, tylko woda i Pan Bóg chodził po wodzie. Raz zobaczył na wodzie pianę: "Kto ty jesteś" - spytał, a piana: "Nie wiem, jestem żywa, a chodzić nie mogę". A był to zły duch Arydnyk. Dał mu Pan Bóg ręce i nogi. I już chodzą razem. Znudziło im się wciąż chodzić po wodzie; Chciał Pan Bóg zrobić ziemię, Arydnyk popłynął na dno, zgarnął trochę gliny w garść, a resztę schował do gęby dla seibie. Pobłogosławił Pan Bóg ziemię i zaczęła rosnąć. Rośnie i rośnie, Diabłu gębę rozpiera. "Pluj" - radzi Pan Bóg. Zaczął diabeł pluć, a gdzie tylko plunie, tam wyrastają góry, jedna wyższa od drugiej. Przebiły by nawet niebo, gdyby ich Pan Bóg nie zaklął..."

Góry to "sztańskie dzieło". Każdy to zrozumie, kto raz dał się uwieść ich pięknu. Nic nie zatrzyma go - musi do nich wrócić. Tęsknota za górami nie pozwala żyć. Nie mając czasu, sił i pieniędzy na ciągłe wyjazdy, stworzyliśmy ich namiastkę w swoim mieście.

Tak powstała Orkiestra św. Mikołaja

Reedycja 2007

"Muzyka gór", nagrana najprostszą metodą, "na setkę". Dźwięk całego zespołu nagrano w stereo – i tyle. Efekt przypominał zapis koncertu w sali z lekkim pogłosem – tzw. "naturalne brzmienie" z wszystkimi jego zaletami i wadami. Kasetę wydał Pomaton (później Pomaton EMI), który wszedł na rynek pod hasłem promocji niszowej muzyki "z tekstem". Ale – jak każdy wydawca folkowy – nie oferował żadnej promocji ani szerokiej dystrybucji. W 2006 roku nagrania te, jako kultowe, zostały wykupione i wznowione na płycie kompaktowej przez firmę FF "Konador" (www.folk.pl).

Spotkanie z zespołem w tym okresie było niezapomnianym przeżyciem. Połączenie ekspresji zespołu z siłą akustycznego dźwięku wydawało się niepodobne do wszystkiego, co publiczność wcześniej słyszała i widziała na scenie – spontaniczna radość muzykowania, swoboda emanująca z ruchu na scenie i kontaktowy sposób grania oraz nawiązujące do kultury wiejskiej, ale niewymuszone stroje i ozdoby. W tych ludziach, nawet w ich urodzie i fryzurach było coś, co wywoływało wrażenie ich wzajemnego podobieństwa, inności od reszty i magnetyzmu.

Sukces tej muzyki wynikał z jej niescenicznej i wspólnotowej genezy. Podczas spotkań dużych grup ludzi na świeżym powietrzu, bez żadnego nagłośnienia, liczyła się siła dźwięku wielu gardeł śpiewających tzw. "białym" głosem i taki dobór instrumentów (gitara, bałałajka, domra, mandolina) oraz sposobu gry, aby ewentualne rozstrojenie czy gorszy odsłuch nie psuły efektu. Znakami rozpoznawczymi tego brzmienia stały się pieśni chóralne, od których ciarki przechodziły po plecach, jak np. "Wiązanka kołomyjek" oraz solowe indywidualności, takie jak Agnieszka "Śnieżka" Śnieżko w "Na potoczku-m prała". Ich sposób śpiewania był z reguły bardzo indywidualny i ekspresyjny, wręcz aktorski, co przejawiało się również w zachowaniu na scenie. Często pomagała w tym forma dialogu chłopaka i dziewczyny, na której oparte były niektóre piosenki, jak np. "Tam w lisi" z Elą Rojek i Marcinem Mrowcą w rolach głównych.

Kilka łemkowskich piosenek z "Muzyki gór" weszło na ponad dekadę do żelaznego repertuaru Orkiestry, ale już na tych pierwszych nagraniach stanowią one tylko 1/3. Reszta to głównie utwory huculskie i polskie. Przed muzykami właśnie otwierał się świat muzyki ludowej różnych krajów i kultur, ich połączeń, rozmaitych tradycji i klimatów.

Płyta zamwiera dodatko niepublikowane na kasecie utwory z sesji w 1992 roku:
13. Czom Ty Ne Pryjszol (Piosenka Ukraińska)
14. Koło Mojoj Zahradoczky (Piosenka Łemkowska)
15. Czorni Oczka (Piosenka Ukraińska)


Якщо Ви справді бажаєте підтримати українське - після прослуховування, якщо музика вам сподобалась,
придбайте ліцензійний диск.
Підтримаймо вітчизняних виконавців!


Срібний реліз (на рейтинг впливає 50% завантаженого)
 Трекер:    Зареєстрований   

Завантажити / скачати українську музику



відео для новачків



 Зареєстрований:   2012-12-09 16:46
 Розмір:   310 MB 
 Оцінка музики:   6.6/10 (Голосів: 8)
   
hogo 
Новенький


З нами з: 29.04.09
Востаннє: 07.12.16
Повідомлень: 24

2013-03-12 02:08  
Чудово: і гуцульські, і лемківські, і закарпатські пісні. Дякую.
Ваш часовий пояс: GMT + 2 Години

Нова тема   Відповісти