Завантажити та скачати торренти українською


VA - Весільний хіт (6 альбомів) (2006-2010) [FLAC] | Pop Folk

Нові коментарі

Нова тема   Відповісти
Останній раз роздавалося staf777 (2016-12-07)
Автор Повідомлення
ssTAss 
Модератор музики


З нами з: 05.07.08
Востаннє: 08.12.16
Повідомлень: 10947

2012-12-07 02:15  
VA - Весільний хіт (6 альбомів) (2006-2010) [FLAC] | Pop Folk

VA - Весільний хіт (6 альбомів) (2006-2010) [FLAC] | Pop Folk


Стиль: Pop Folk
Країна: Україна
Видавець: Вітряк рекордз
Виконавці:
В.Іжицький, Б.Сичевський, І.Книжник, В.Терновий, Ю.Гаврилюк
Пісні:
    2006 Весільний хіт 1
    VA - Весільний хіт (6 альбомів) (2006-2010) [FLAC] | Pop Folk
    01 - Дай, кума (4:12) вик. В.Іжицький
    02 - Чоботи (3:46) вик. Б.Сичевський
    03 - Чорна редька (3:14) вик. І.Книжник
    04 - Ой, Марічко, чичері (3:39) вик. Б.Сичевський
    05 - Ой, вишеньки, черешеньки (4:12) вик. І.Книжник
    06 - Як би мені сивий кінь (3:23) вик. Б.Сичевський
    07 - Стара баба (3:35) вик. В.Іжицький
    08 - Весільний марш (2:00) вик. В.Терновий
    09 - Карапет (2:22) вик. В.Іжицький
    10 - Горіла сосна (4:54) вик. І.Книжник
    11 - Полька (3:07) вик. В.Терновий
    12 - Як би в лісі гриби не родили (2:43) вик. І.Книжник
    13 - Плаче захмарене небо (4:48) вик. Б.Сичевський
    14 - Ой, устану ранесенько (3:15) вик. І.Книжник
    15 - Гей, гоп Європа! (4:04) вик. В.Іжицький
    16 - Теща, дай! (4:36) вик. В.Іжицький

    Тривалість: 00:57:50
    Бітрейт: 1075 кб/с
    log
    Exact Audio Copy V1.0 beta 1 from 15. November 2010

    Отчёт EAC об извлечении, выполненном 1. декабря 2011, 15:09

    Various / Весільний хіт 1

    Дисковод: HL-DT-STDVD-RAM GH22NP21 Adapter: 0 ID: 0

    Режим чтения : Достоверность
    Использование точного потока : Да
    Отключение кэша аудио : Да
    Использование указателей C2 : Нет

    Коррекция смещения при чтении : 102
    Способность читать области Lead-in и Lead-out : Нет
    Заполнение пропущенных сэмплов тишиной : Да
    Удаление блоков с тишиной в начале и конце : Нет
    При вычислениях CRC использовались нулевые сэмплы : Да
    Интерфейс : Встроенный Win32-интерфейс для Win NT/2000

    Выходной формат : Пользовательский кодировщик
    Выбранный битрейт : 1024 kBit/s
    Качество : Высокий
    Добавление ID3-тэга : Нет
    Утилита сжатия : C:\Program Files\Exact Audio Copy\FLAC\FLAC.EXE
    Дополнительные параметры : -8 -V -T "ARTIST=%a" -T "TITLE=%t" -T "ALBUM=%g" -T "DATE=%y" -T "TRACKNUMBER=%n" -T "GENRE=%m" -T "COMMENT=%e" %j--picture="%i"%j %s -o %d

    TOC извлечённого CD

    Трек | Старт | Длительность | Начальный сектор | Конечный сектор
    ---------------------------------------------------------------------
    1 | 0:00.00 | 4:12.27 | 0 | 18926
    2 | 4:12.27 | 3:46.13 | 18927 | 35889
    3 | 7:58.40 | 3:14.74 | 35890 | 50513
    4 | 11:13.39 | 3:41.47 | 50514 | 67135
    5 | 14:55.11 | 4:02.46 | 67136 | 85331
    6 | 18:57.57 | 3:23.61 | 85332 | 100617
    7 | 22:21.43 | 3:35.68 | 100618 | 116810
    8 | 25:57.36 | 2:00.37 | 116811 | 125847
    9 | 27:57.73 | 2:22.62 | 125848 | 136559
    10 | 30:20.60 | 4:54.52 | 136560 | 158661
    11 | 35:15.37 | 3:07.50 | 158662 | 172736
    12 | 38:23.12 | 2:43.20 | 172737 | 184981
    13 | 41:06.32 | 4:48.40 | 184982 | 206621
    14 | 45:54.72 | 3:15.06 | 206622 | 221252
    15 | 49:10.03 | 4:04.64 | 221253 | 239616
    16 | 53:14.67 | 4:34.61 | 239617 | 260227

    Характеристики диапазона извлечения и сообщения об ошибках

    Выбранный диапазон

    Имя файла D:\Раздачи на torrents.ru\VA - Весільний хіт 1,2006(lossless)\Various - Весільний хіт 1.wav

    Пиковый уровень 100.0 %
    0.2 X
    Качество диапазона 100.0 %
    CRC теста 583865AB
    CRC копии 583865AB
    Копирование... OK

    Ошибок не произошло

    AccurateRip: сводка

    Трек 1 нет в базе данных
    Трек 2 нет в базе данных
    Трек 3 нет в базе данных
    Трек 4 нет в базе данных
    Трек 5 нет в базе данных
    Трек 6 нет в базе данных
    Трек 7 нет в базе данных
    Трек 8 нет в базе данных
    Трек 9 нет в базе данных
    Трек 10 нет в базе данных
    Трек 11 нет в базе данных
    Трек 12 нет в базе данных
    Трек 13 нет в базе данных
    Трек 14 нет в базе данных
    Трек 15 нет в базе данных
    Трек 16 нет в базе данных

    Ни одного трека нет в базе AccurateRip

    Конец отчёта
    fooCDtect
    fooCDtect - foobar2000 + auCDtect, baralgin.

    auCDtect: CD records authenticity detector, version 0.8.2
    Copyright (c) 2004 Oleg Berngardt. All rights reserved.
    Copyright (c) 2004 Alexander Djourik. All rights reserved.

    mode: 0

    ===========================================
    Track: 01 - Дай, кума
    Quality: CDDA 100%
    ===========================================
    Track: 02 - Чоботи
    Quality: CDDA 100%
    ===========================================
    Track: 03 - Чорна редька
    Quality: CDDA 100%
    ===========================================
    Track: 04 - Ой, Марічко, чичері
    Quality: CDDA 100%
    ===========================================
    Track: 05 - Ой, вишеньки, черешеньки
    Quality: CDDA 100%
    ===========================================
    Track: 06 - Як би мені сивий кінь
    Quality: CDDA 99%
    ===========================================
    Track: 07 - Стара баба
    Quality: CDDA 100%
    ===========================================
    Track: 08 - Весільний марш
    Quality: CDDA 100%
    ===========================================
    Track: 09 - Карапет
    Quality: CDDA 99%
    ===========================================
    Track: 10 - Горіла сосна
    Quality: CDDA 100%
    ===========================================
    Track: 11 - Полька
    Quality: CDDA 100%
    ===========================================
    Track: 12 - Як би в лісі гриби не родили
    Quality: CDDA 100%
    ===========================================
    Track: 13 - Плаче захмарене небо
    Quality: CDDA 100%
    ===========================================
    Track: 14 - Ой, устану ранесенько
    Quality: CDDA 100%
    ===========================================
    Track: 15 - Гей, гоп Європа!
    Quality: CDDA 99%
    ===========================================
    Track: 16 - Теща, дай!
    Quality: CDDA 100%
    ===========================================
    2007 Весільний хіт 2
    VA - Весільний хіт (6 альбомів) (2006-2010) [FLAC] | Pop Folk
    01 - Золоті крилечка (3:12) вик. В.Іжицький
    02 - Як була я на весіллі (3:14) вик. І.Книжник
    03 - Волиняночка (3:06) вик. Б.Сичевський
    04 - Сім сорок (3:40) вик. В.Терновий
    05 - При долині кущ калини (3:54) вик. І.Книжник
    06 - Ти ж мене підманула (3:23) вик. Б.Сичевський
    07 - Кину кужіль на полицю (2:43) вик. І.Книжник
    08 - Ой, на горі білий камінь (3:35) вик. В.Іжицький
    09 - Хмільна (3:19) вик. Б.Сичевський
    10 - Очі сині (4:02) вик. В.Іжицький
    11 - Била мене мати (2:52) вик. Ю.Гаврилюк
    12 - Полька (3:17) вик. В.Терновий
    13 - Не йдіть заміж на музику (3:22) вик. І.Книжник
    14 - Ой, на горі два дубки (2:48) вик. Б.Сичевський
    15 - А нині невістка (3:15) вик. І.Книжник
    16 - Ой, летіли журавлі (3:36) вик. В.Іжицький

    Тривалість: 00:55:31
    Бітрейт: 1051 кб/с
    log
    Exact Audio Copy V1.0 beta 3 from 29. August 2011

    Отчёт EAC об извлечении, выполненном 13. июля 2012, 16:46

    Various Artists / Весільний хіт - 2

    Дисковод: TSSTcorpCDDVDW TS-L633J Adapter: 0 ID: 1

    Режим чтения : Достоверность
    Использование точного потока : Да
    Отключение кэша аудио : Да
    Использование указателей C2 : Нет

    Коррекция смещения при чтении : 6
    Способность читать области Lead-in и Lead-out : Нет
    Заполнение пропущенных сэмплов тишиной : Да
    Удаление блоков с тишиной в начале и конце : Нет
    При вычислениях CRC использовались нулевые сэмплы : Да
    Интерфейс : Встроенный Win32-интерфейс для Win NT/2000

    Выходной формат : Пользовательский кодировщик
    Выбранный битрейт : 1024 kBit/s
    Качество : Высокий
    Добавление ID3-тега : Нет
    Утилита сжатия : C:\Program Files (x86)\Exact Audio Copy\FLAC\FLAC.EXE
    Дополнительные параметры : -8 -V -T "ARTIST=%artist%" -T "TITLE=%title%" -T "ALBUM=%albumtitle%" -T "DATE=%year%" -T "TRACKNUMBER=%tracknr%" -T "GENRE=%genre%" -T "COMMENT=%comment%" -T "BAND=%albuminterpret%" -T "ALBUMARTIST=%albuminterpret%" -T "COMPOSER=%composer%" %haslyrics%--tag-from-file=LYRICS="%lyricsfile%"%haslyrics% -T "DISCNUMBER=%cdnumber%" -T "TOTALDISCS=%totalcds%" -T "TOTALTRACKS=%numtracks%" %hascover%--picture="%coverfile%"%hascover% %source% -o %dest%

    TOC извлечённого CD

    Трек | Старт | Длительность | Начальный сектор | Конечный сектор
    ---------------------------------------------------------------------
    1 | 0:00.00 | 4:00.20 | 0 | 18019
    2 | 4:00.20 | 3:06.68 | 18020 | 32037
    3 | 7:07.13 | 3:03.61 | 32038 | 45823
    4 | 10:10.74 | 3:17.07 | 45824 | 60605
    5 | 13:28.06 | 4:32.00 | 60606 | 81005
    6 | 18:00.06 | 3:11.54 | 81006 | 95384
    7 | 21:11.60 | 3:11.45 | 95385 | 109754
    8 | 24:23.30 | 3:22.41 | 109755 | 124945
    9 | 27:45.71 | 3:31.47 | 124946 | 140817
    10 | 31:17.43 | 3:40.18 | 140818 | 157335
    11 | 34:57.61 | 3:21.28 | 157336 | 172438
    12 | 38:19.14 | 3:53.26 | 172439 | 189939
    13 | 42:12.40 | 3:07.26 | 189940 | 203990
    14 | 45:19.66 | 3:22.25 | 203991 | 219165
    15 | 48:42.16 | 3:25.47 | 219166 | 234587
    16 | 52:07.63 | 3:22.54 | 234588 | 249791

    Характеристики диапазона извлечения и сообщения об ошибках

    Выбранный диапазон

    Имя файла D:\VA - Весільний хіт - 2.2007(lossless)\Various Artists - Весільний хіт - 2.wav

    Пиковый уровень 100.0 %
    Скорость извлечения 2.9 X
    Качество диапазона 100.0 %
    CRC теста F971833E
    CRC копии F971833E
    Копирование... OK

    Ошибок не произошло

    AccurateRip: сводка

    Трек 1 отсутствует в базе данных
    Трек 2 отсутствует в базе данных
    Трек 3 отсутствует в базе данных
    Трек 4 отсутствует в базе данных
    Трек 5 отсутствует в базе данных
    Трек 6 отсутствует в базе данных
    Трек 7 отсутствует в базе данных
    Трек 8 отсутствует в базе данных
    Трек 9 отсутствует в базе данных
    Трек 10 отсутствует в базе данных
    Трек 11 отсутствует в базе данных
    Трек 12 отсутствует в базе данных
    Трек 13 отсутствует в базе данных
    Трек 14 отсутствует в базе данных
    Трек 15 отсутствует в базе данных
    Трек 16 отсутствует в базе данных

    Ни одного трека нет в базе AccurateRip

    Конец отчёта
    fooCDtect
    fooCDtect - foobar2000 + auCDtect, baralgin.

    auCDtect: CD records authenticity detector, version 0.8.2
    Copyright (c) 2004 Oleg Berngardt. All rights reserved.
    Copyright (c) 2004 Alexander Djourik. All rights reserved.

    mode: 0

    ===========================================
    Track: 01 - Золоті крилечка
    Quality: CDDA 99%
    ===========================================
    Track: 02 - Як була я на весіллі
    Quality: CDDA 100%
    ===========================================
    Track: 03 - Волиняночка
    Quality: CDDA 99%
    ===========================================
    Track: 04 - Сім сорок
    Quality: CDDA 99%
    ===========================================
    Track: 05 - При долині кущ калини
    Quality: CDDA 100%
    ===========================================
    Track: 06 - Ти ж мене підманула
    Quality: CDDA 100%
    ===========================================
    Track: 07 - Кину кужіль на полицю
    Quality: CDDA 100%
    ===========================================
    Track: 08 - Ой на горі білий камінь
    Quality: CDDA 100%
    ===========================================
    Track: 09 - Хмільна
    Quality: CDDA 100%
    ===========================================
    Track: 10 - Очі сині
    Quality: CDDA 100%
    ===========================================
    Track: 11 - Била мене мати
    Quality: CDDA 99%
    ===========================================
    Track: 12 - Полька
    Quality: CDDA 100%
    ===========================================
    Track: 13 - Не йдіть заміж за музику
    Quality: CDDA 100%
    ===========================================
    Track: 14 - Ой на горі два дубки
    Quality: CDDA 99%
    ===========================================
    Track: 15 - А нині невістка
    Quality: CDDA 100%
    ===========================================
    Track: 16 - Ой летіли журавлі
    Quality: CDDA 99%
    ===========================================
    2008 Весільний хіт 3
    VA - Весільний хіт (6 альбомів) (2006-2010) [FLAC] | Pop Folk
    01 - А хто п’є, тому наливайте (3:06) вик. Б.Сичевський
    02 - Продай, милий, сиві бички (3:02) вик. І.Книжник
    03 - Червона ружа (3:26) вик. В.Іжицький
    04 - Гоп зі смиком (3:12) вик. Б.Сичевський
    05 - Зеленеє жито (3:00) вик. І.Книжник
    06 - Вітер виє (2:43) вик. В.Іжицький
    07 - Полька (3:25) вик. В.Терновий
    08 - Місяць і зіроньки (3:04) вик. І.Книжник
    09 - Ой, підемо, жінко, підемо-підемо (2:42) вик. Б.Сичевський
    10 - Раз у похід козак збирався (3:25) вик. В.Іжицький
    11 - Мав я раз дівчиноньку чепурненьку (2:52) вик. Б.Сичевський
    12 - Порізала пальчик (3:17) вик. І.Книжник
    13 - А на нашій вулиці (3:54) вик. В.Іжевський
    14 - Ой, у полі криниченька (3:16) вик. Б.Сичевський
    15 - За Дунаєм (3:02) вик. І.Книжник
    16 - Гоп, стоп, Канада! (3:34) вик. Б.Сичевський

    Тривалість: 00:52:07
    Бітрейт: 1071 кб/с
    log
    Exact Audio Copy V1.0 beta 1 from 15. November 2010

    Отчёт EAC об извлечении, выполненном 7. декабря 2011, 22:09

    Various / Весільний хіт 3

    Дисковод: HL-DT-STDVD-RAM GH22NP21 Adapter: 0 ID: 0

    Режим чтения : Достоверность
    Использование точного потока : Да
    Отключение кэша аудио : Да
    Использование указателей C2 : Нет

    Коррекция смещения при чтении : 102
    Способность читать области Lead-in и Lead-out : Нет
    Заполнение пропущенных сэмплов тишиной : Да
    Удаление блоков с тишиной в начале и конце : Нет
    При вычислениях CRC использовались нулевые сэмплы : Да
    Интерфейс : Встроенный Win32-интерфейс для Win NT/2000

    Выходной формат : Пользовательский кодировщик
    Выбранный битрейт : 1024 kBit/s
    Качество : Высокий
    Добавление ID3-тэга : Нет
    Утилита сжатия : C:\Program Files\Exact Audio Copy\FLAC\FLAC.EXE
    Дополнительные параметры : -8 -V -T "ARTIST=%a" -T "TITLE=%t" -T "ALBUM=%g" -T "DATE=%y" -T "TRACKNUMBER=%n" -T "GENRE=%m" -T "COMMENT=%e" %j--picture="%i"%j %s -o %d

    TOC извлечённого CD

    Трек | Старт | Длительность | Начальный сектор | Конечный сектор
    ---------------------------------------------------------------------
    1 | 0:00.00 | 3:09.20 | 0 | 14194
    2 | 3:09.20 | 3:02.59 | 14195 | 27903
    3 | 6:12.04 | 2:55.06 | 27904 | 41034
    4 | 9:07.10 | 3:28.56 | 41035 | 56690
    5 | 12:35.66 | 2:51.43 | 56691 | 69558
    6 | 15:27.34 | 3:09.50 | 69559 | 83783
    7 | 18:37.09 | 3:36.47 | 83784 | 100030
    8 | 22:13.56 | 3:06.62 | 100031 | 114042
    9 | 25:20.43 | 2:50.48 | 114043 | 126840
    10 | 28:11.16 | 3:10.21 | 126841 | 141111
    11 | 31:21.37 | 3:13.68 | 141112 | 155654
    12 | 34:35.30 | 2:48.51 | 155655 | 168305
    13 | 37:24.06 | 3:59.55 | 168306 | 186285
    14 | 41:23.61 | 3:41.72 | 186286 | 202932
    15 | 45:05.58 | 3:30.44 | 202933 | 218726
    16 | 48:36.27 | 3:31.46 | 218727 | 234597

    Характеристики диапазона извлечения и сообщения об ошибках

    Выбранный диапазон

    Имя файла D:\Раздачи на torrents.ru\VA - Весільний хіт 3,2008(lossless)\Various - Весільний хіт 3.wav

    Пиковый уровень 100.0 %
    0.1 X
    Качество диапазона 100.0 %
    CRC теста 0760B23A
    CRC копии 0760B23A
    Копирование... OK

    Ошибок не произошло

    AccurateRip: сводка

    Трек 1 нет в базе данных
    Трек 2 нет в базе данных
    Трек 3 нет в базе данных
    Трек 4 нет в базе данных
    Трек 5 нет в базе данных
    Трек 6 нет в базе данных
    Трек 7 нет в базе данных
    Трек 8 нет в базе данных
    Трек 9 нет в базе данных
    Трек 10 нет в базе данных
    Трек 11 нет в базе данных
    Трек 12 нет в базе данных
    Трек 13 нет в базе данных
    Трек 14 нет в базе данных
    Трек 15 нет в базе данных
    Трек 16 нет в базе данных

    Ни одного трека нет в базе AccurateRip

    Конец отчёта
    fooCDtect
    fooCDtect - foobar2000 + auCDtect, baralgin.

    auCDtect: CD records authenticity detector, version 0.8.2
    Copyright (c) 2004 Oleg Berngardt. All rights reserved.
    Copyright (c) 2004 Alexander Djourik. All rights reserved.

    mode: 0

    ===========================================
    Track: 01 - А хто п'є, тому наливайте
    Quality: CDDA 100%
    ===========================================
    Track: 02 - Продай , милий, сиві бички
    Quality: CDDA 100%
    ===========================================
    Track: 03 - Червона ружа
    Quality: CDDA 100%
    ===========================================
    Track: 04 - Гоп зі смиком
    Quality: CDDA 100%
    ===========================================
    Track: 05 - Зеленеє жито
    Quality: CDDA 100%
    ===========================================
    Track: 06 - Вітер віє
    Quality: CDDA 100%
    ===========================================
    Track: 07 - Полька
    Quality: CDDA 99%
    ===========================================
    Track: 08 - Місяць і зіроньки
    Quality: CDDA 100%
    ===========================================
    Track: 09 - Ой, підемо, жінко, підемо-підемо
    Quality: CDDA 100%
    ===========================================
    Track: 10 - Раз у похід козак збирався
    Quality: CDDA 100%
    ===========================================
    Track: 11 - Мав я раз дівчиноньку чепурненьку
    Quality: CDDA 100%
    ===========================================
    Track: 12 - Порізала пальчик
    Quality: CDDA 100%
    ===========================================
    Track: 13 - А на нашій вулиці
    Quality: CDDA 99%
    ===========================================
    Track: 14 - Ой, у полі криниченька
    Quality: CDDA 100%
    ===========================================
    Track: 15 - За Дунаєм
    Quality: CDDA 100%
    ===========================================
    Track: 16 - Гоп, стоп, Канада!
    Quality: CDDA 100%
    ===========================================
    2008 Весільний хіт 4
    VA - Весільний хіт (6 альбомів) (2006-2010) [FLAC] | Pop Folk
    01 - Дана, гей! (3:16) вик. Б.Сичевський
    02 - Гуляю я (3:08) вик. І.Книжник
    03 - Полюбив я циганочку (3:22) вик. В.Іжицький
    04 - Ой, що там за шум учинився (3:10) вик. Б.Сичевський
    05 - Я знаю, що гріх маю (3:00) вик. І.Книжник
    06 - Ой,летіла зозуленька (2:53) вик. В.Іжицький
    07 - Полька (3:18) вик. В.Терновий
    08 - Ой, гарна я гарна (3:14) вик. І.Книжник
    09 - Ой, жаль, жаль (2:42) вик. Б.Сичевський
    10 - Шумить гай зелений (3:05) вик. Ю.Гаврилюк
    11 - Ой,на горі цигани стояли (2:58) вик. Б.Сичевський
    12 - Ой, чорна я си чорна (2:57) вик. І.Книжник
    13 - Ой, заграйте, музиченьки (3:04) вик. В.Іжицький
    14 - Їхав Василь (3:16) вик. Б.Сичевський
    15 - Дунаю, Дунаю (3:15) вик. І.Книжник
    16 - Ой, чий то кінь стоїть (2:54) вик. Б.Сичевський

    Тривалість: 00:51:39
    Бітрейт: 1066 кб/с
    log
    Exact Audio Copy V1.0 beta 1 from 15. November 2010

    Отчёт EAC об извлечении, выполненном 8. декабря 2011, 14:43

    Various / Весільний хіт 4

    Дисковод: HL-DT-STDVD-RAM GH22NP21 Adapter: 0 ID: 0

    Режим чтения : Достоверность
    Использование точного потока : Да
    Отключение кэша аудио : Да
    Использование указателей C2 : Нет

    Коррекция смещения при чтении : 102
    Способность читать области Lead-in и Lead-out : Нет
    Заполнение пропущенных сэмплов тишиной : Да
    Удаление блоков с тишиной в начале и конце : Нет
    При вычислениях CRC использовались нулевые сэмплы : Да
    Интерфейс : Встроенный Win32-интерфейс для Win NT/2000

    Выходной формат : Пользовательский кодировщик
    Выбранный битрейт : 1024 kBit/s
    Качество : Высокий
    Добавление ID3-тэга : Нет
    Утилита сжатия : C:\Program Files\Exact Audio Copy\FLAC\FLAC.EXE
    Дополнительные параметры : -8 -V -T "ARTIST=%a" -T "TITLE=%t" -T "ALBUM=%g" -T "DATE=%y" -T "TRACKNUMBER=%n" -T "GENRE=%m" -T "COMMENT=%e" %j--picture="%i"%j %s -o %d

    TOC извлечённого CD

    Трек | Старт | Длительность | Начальный сектор | Конечный сектор
    ---------------------------------------------------------------------
    1 | 0:00.00 | 3:10.33 | 0 | 14282
    2 | 3:10.33 | 2:50.20 | 14283 | 27052
    3 | 6:00.53 | 3:01.00 | 27053 | 40627
    4 | 9:01.53 | 3:15.36 | 40628 | 55288
    5 | 12:17.14 | 3:27.57 | 55289 | 70870
    6 | 15:44.71 | 3:28.35 | 70871 | 86505
    7 | 19:13.31 | 3:07.55 | 86506 | 100585
    8 | 22:21.11 | 4:02.57 | 100586 | 118792
    9 | 26:23.68 | 3:02.07 | 118793 | 132449
    10 | 29:26.00 | 3:19.00 | 132450 | 147374
    11 | 32:45.00 | 3:19.25 | 147375 | 162324
    12 | 36:04.25 | 3:25.00 | 162325 | 177699
    13 | 39:29.25 | 3:17.20 | 177700 | 192494
    14 | 42:46.45 | 3:07.61 | 192495 | 206580
    15 | 45:54.31 | 2:49.53 | 206581 | 219308
    16 | 48:44.09 | 2:55.20 | 219309 | 232453

    Характеристики диапазона извлечения и сообщения об ошибках

    Выбранный диапазон

    Имя файла D:\Раздачи на torrents.ru\VA - Весільний хіт 4,2008(lossless)\Various - Весільний хіт 4.wav

    Пиковый уровень 100.0 %
    0.1 X
    Качество диапазона 100.0 %
    CRC теста F6BC074D
    CRC копии F6BC074D
    Копирование... OK

    Ошибок не произошло

    AccurateRip: сводка

    Трек 1 нет в базе данных
    Трек 2 нет в базе данных
    Трек 3 нет в базе данных
    Трек 4 нет в базе данных
    Трек 5 нет в базе данных
    Трек 6 нет в базе данных
    Трек 7 нет в базе данных
    Трек 8 нет в базе данных
    Трек 9 нет в базе данных
    Трек 10 нет в базе данных
    Трек 11 нет в базе данных
    Трек 12 нет в базе данных
    Трек 13 нет в базе данных
    Трек 14 нет в базе данных
    Трек 15 нет в базе данных
    Трек 16 нет в базе данных

    Ни одного трека нет в базе AccurateRip

    Конец отчёта
    fooCDtect
    fooCDtect - foobar2000 + auCDtect, baralgin.

    auCDtect: CD records authenticity detector, version 0.8.2
    Copyright (c) 2004 Oleg Berngardt. All rights reserved.
    Copyright (c) 2004 Alexander Djourik. All rights reserved.

    mode: 0

    ===========================================
    Track: 01 - Дана, гей!
    Quality: CDDA 100%
    ===========================================
    Track: 02 - Гуляю я
    Quality: CDDA 99%
    ===========================================
    Track: 03 - Полюбив я циганочку
    Quality: CDDA 100%
    ===========================================
    Track: 04 - Ой, що то за шум учинився
    Quality: CDDA 100%
    ===========================================
    Track: 05 - А я знаю, що гріх маю
    Quality: CDDA 100%
    ===========================================
    Track: 06 - Ой, летіла зозуленка
    Quality: CDDA 99%
    ===========================================
    Track: 07 - Полька
    Quality: CDDA 100%
    ===========================================
    Track: 08 - Ой, гарна я гарна
    Quality: CDDA 100%
    ===========================================
    Track: 09 - Ой, жаль, жаль
    Quality: CDDA 99%
    ===========================================
    Track: 10 - Шумить гай зелений
    Quality: CDDA 100%
    ===========================================
    Track: 11 - Ой, на горі цигани стояли
    Quality: CDDA 99%
    ===========================================
    Track: 12 - Ой, чорна я си чорна
    Quality: CDDA 99%
    ===========================================
    Track: 13 - Ой, заграйте, музиченьки
    Quality: CDDA 100%
    ===========================================
    Track: 14 - Їхав Василь
    Quality: CDDA 99%
    ===========================================
    Track: 15 - Дунаю, Дунаю
    Quality: CDDA 99%
    ===========================================
    Track: 16 - Ой, чий то кінь стоїть
    Quality: CDDA 99%
    ===========================================
    2009 Весільний хіт 5
    VA - Весільний хіт (6 альбомів) (2006-2010) [FLAC] | Pop Folk
    01 - Циганочка моя (2:56) вик. Б.Сичевський
    02 - Не лай мене, моя мати (2:39) вик. І. Книжник
    03 - Шабелина (3:01) вик. В.Іжицький
    04 - Тум балалайка (4:47) вик. І. Книжник
    05 - Дівчина Марічка (3:13) вик. Б.Сичевський
    06 - Дівчина моя (3:47) вик. В.Іжицький
    07 - Їхали козаки (3:23) вик. Б.Сичевський
    08 - Чорноморець (3:11) вик. І. Книжник
    09 - Ой, піду я на ярмарок (3:17) вик. Б.Сичевський
    10 - Під калиною дівчина (3:02) вик. Ю.Гаврилюк
    11 - Ой, сад – виноград (3:01) вик. І.Книжник
    12 - Полька (2:42) вик. В.Іжицький
    13 - Гиля, гуси (4:14) вик. І. Книжник
    14 - Чотири воли пасу я (3:08) вик. Ю.Гаврилюк
    15 - Ой, я гуляю (3:59) вик. І. Книжник
    16 - Червона ружа – це любов (3:31) вик. Б.Сичевський

    Тривалість: 00:53:59
    Бітрейт: 1069 кб/с
    log
    Exact Audio Copy V1.0 beta 1 from 15. November 2010

    Отчёт EAC об извлечении, выполненном 8. декабря 2011, 16:14

    Various / Весільний хіт 5

    Дисковод: HL-DT-STDVD-RAM GH22NP21 Adapter: 0 ID: 0

    Режим чтения : Достоверность
    Использование точного потока : Да
    Отключение кэша аудио : Да
    Использование указателей C2 : Нет

    Коррекция смещения при чтении : 102
    Способность читать области Lead-in и Lead-out : Нет
    Заполнение пропущенных сэмплов тишиной : Да
    Удаление блоков с тишиной в начале и конце : Нет
    При вычислениях CRC использовались нулевые сэмплы : Да
    Интерфейс : Встроенный Win32-интерфейс для Win NT/2000

    Выходной формат : Пользовательский кодировщик
    Выбранный битрейт : 1024 kBit/s
    Качество : Высокий
    Добавление ID3-тэга : Нет
    Утилита сжатия : C:\Program Files\Exact Audio Copy\FLAC\FLAC.EXE
    Дополнительные параметры : -8 -V -T "ARTIST=%a" -T "TITLE=%t" -T "ALBUM=%g" -T "DATE=%y" -T "TRACKNUMBER=%n" -T "GENRE=%m" -T "COMMENT=%e" %j--picture="%i"%j %s -o %d

    TOC извлечённого CD

    Трек | Старт | Длительность | Начальный сектор | Конечный сектор
    ---------------------------------------------------------------------
    1 | 0:00.00 | 2:56.06 | 0 | 13205
    2 | 2:56.06 | 2:39.11 | 13206 | 25141
    3 | 5:35.17 | 3:01.49 | 25142 | 38765
    4 | 8:36.66 | 4:47.36 | 38766 | 60326
    5 | 13:24.27 | 3:13.30 | 60327 | 74831
    6 | 16:37.57 | 3:47.46 | 74832 | 91902
    7 | 20:25.28 | 3:23.08 | 91903 | 107135
    8 | 23:48.36 | 3:11.40 | 107136 | 121500
    9 | 27:00.01 | 3:17.13 | 121501 | 136288
    10 | 30:17.14 | 3:02.49 | 136289 | 149987
    11 | 33:19.63 | 3:01.34 | 149988 | 163596
    12 | 36:21.22 | 2:42.33 | 163597 | 175779
    13 | 39:03.55 | 4:14.66 | 175780 | 194895
    14 | 43:18.46 | 3:08.52 | 194896 | 209047
    15 | 46:27.23 | 3:59.40 | 209048 | 227012
    16 | 50:26.63 | 3:31.61 | 227013 | 242898

    Характеристики диапазона извлечения и сообщения об ошибках

    Выбранный диапазон

    Имя файла D:\Раздачи на torrents.ru\VA - Весільний хіт 5,2009(lossless)\Various - Весільний хіт 5.wav

    Пиковый уровень 100.0 %
    0.1 X
    Качество диапазона 100.0 %
    CRC теста E5BBA5A3
    CRC копии E5BBA5A3
    Копирование... OK

    Ошибок не произошло

    AccurateRip: сводка

    Трек 1 нет в базе данных
    Трек 2 нет в базе данных
    Трек 3 нет в базе данных
    Трек 4 нет в базе данных
    Трек 5 нет в базе данных
    Трек 6 нет в базе данных
    Трек 7 нет в базе данных
    Трек 8 нет в базе данных
    Трек 9 нет в базе данных
    Трек 10 нет в базе данных
    Трек 11 нет в базе данных
    Трек 12 нет в базе данных
    Трек 13 нет в базе данных
    Трек 14 нет в базе данных
    Трек 15 нет в базе данных
    Трек 16 нет в базе данных

    Ни одного трека нет в базе AccurateRip

    Конец отчёта
    fooCDtect
    fooCDtect - foobar2000 + auCDtect, baralgin.

    auCDtect: CD records authenticity detector, version 0.8.2
    Copyright (c) 2004 Oleg Berngardt. All rights reserved.
    Copyright (c) 2004 Alexander Djourik. All rights reserved.

    mode: 0

    ===========================================
    Track: 01 - Циганочка моя
    Quality: CDDA 100%
    ===========================================
    Track: 02 - Не лай мене, моя мати
    Quality: CDDA 99%
    ===========================================
    Track: 03 - Шабелина
    Quality: CDDA 100%
    ===========================================
    Track: 04 - Тум балалайка
    Quality: CDDA 100%
    ===========================================
    Track: 05 - Дівчина Марічка
    Quality: CDDA 99%
    ===========================================
    Track: 06 - Дівчина моя
    Quality: CDDA 100%
    ===========================================
    Track: 07 - Їхали козаки
    Quality: CDDA 99%
    ===========================================
    Track: 08 - Чорноморець
    Quality: CDDA 100%
    ===========================================
    Track: 09 - Ой, піду я на ярмарок
    Quality: CDDA 99%
    ===========================================
    Track: 10 - Під калиною дівчина
    Quality: CDDA 100%
    ===========================================
    Track: 11 - Ой, сад-виноград
    Quality: CDDA 100%
    ===========================================
    Track: 12 - Полька
    Quality: CDDA 100%
    ===========================================
    Track: 13 - Гиля гуси
    Quality: CDDA 100%
    ===========================================
    Track: 14 - Чотири воли пасу я
    Quality: CDDA 100%
    ===========================================
    Track: 15 - Ой, я гуляю
    Quality: CDDA 99%
    ===========================================
    Track: 16 - Червона ружа - це любов
    Quality: CDDA 99%
    ===========================================
    2010 Весільний хіт 6
    VA - Весільний хіт (6 альбомів) (2006-2010) [FLAC] | Pop Folk
    01 - Любив мене мужичок (3:15)
    02 - Ой на горі на горі (2:38)
    03 - Полечка поліська (3:12)
    04 - Мене мати віддавала (3:42)
    05 - Мила моя (3:21)
    06 - Ой не світи місяченьку (3:37)
    07 - А до мене Яків приходив (2:52)
    08 - Ой куме добра горілка (3:48)
    09 - Тече вода каламутна (3:42)
    10 - Ой там на горі (2:30)
    11 - Чорні очка як терен (3:39)
    12 - Пішов Іван в полонину (3:20)
    13 - Ой, двічино, шумить гай (3:19)
    14 - Біля річки (3:34)
    15 - Прийди до мене (3:19)
    16 - Ой, сусідко (3:17)

    Тривалість: 00:53:05
    Бітрейт: 1072 кб/с
    log
    Exact Audio Copy V1.0 beta 1 from 15. November 2010

    Отчёт EAC об извлечении, выполненном 30. ноября 2011, 23:48

    Various / Весільний хіт 6

    Дисковод: HL-DT-STDVD-RAM GH22NP21 Adapter: 0 ID: 0

    Режим чтения : Достоверность
    Использование точного потока : Да
    Отключение кэша аудио : Да
    Использование указателей C2 : Нет

    Коррекция смещения при чтении : 102
    Способность читать области Lead-in и Lead-out : Нет
    Заполнение пропущенных сэмплов тишиной : Да
    Удаление блоков с тишиной в начале и конце : Нет
    При вычислениях CRC использовались нулевые сэмплы : Да
    Интерфейс : Встроенный Win32-интерфейс для Win NT/2000

    Выходной формат : Пользовательский кодировщик
    Выбранный битрейт : 1024 kBit/s
    Качество : Высокий
    Добавление ID3-тэга : Нет
    Утилита сжатия : C:\Program Files\Exact Audio Copy\FLAC\FLAC.EXE
    Дополнительные параметры : -8 -V -T "ARTIST=%a" -T "TITLE=%t" -T "ALBUM=%g" -T "DATE=%y" -T "TRACKNUMBER=%n" -T "GENRE=%m" -T "COMMENT=%e" %j--picture="%i"%j %s -o %d

    TOC извлечённого CD

    Трек | Старт | Длительность | Начальный сектор | Конечный сектор
    ---------------------------------------------------------------------
    1 | 0:00.00 | 2:37.60 | 0 | 11834
    2 | 2:37.60 | 3:14.39 | 11835 | 26423
    3 | 5:52.24 | 3:12.13 | 26424 | 40836
    4 | 9:04.37 | 3:41.59 | 40837 | 57470
    5 | 12:46.21 | 3:21.30 | 57471 | 72575
    6 | 16:07.51 | 3:37.03 | 72576 | 88853
    7 | 19:44.54 | 2:52.02 | 88854 | 101755
    8 | 22:36.56 | 3:47.61 | 101756 | 118841
    9 | 26:24.42 | 3:41.50 | 118842 | 135466
    10 | 30:06.17 | 2:30.22 | 135467 | 146738
    11 | 32:36.39 | 3:38.68 | 146739 | 163156
    12 | 36:15.32 | 3:19.67 | 163157 | 178148
    13 | 39:35.24 | 3:19.10 | 178149 | 193083
    14 | 42:54.34 | 3:34.35 | 193084 | 209168
    15 | 46:28.69 | 3:19.08 | 209169 | 224101
    16 | 49:48.02 | 3:17.35 | 224102 | 238911

    Характеристики диапазона извлечения и сообщения об ошибках

    Выбранный диапазон

    Имя файла D:\Раздачи на torrents.ru\VA - Весільний хіт 6,2011(lossless)\Various - Весільний хіт 6.wav

    Пиковый уровень 100.0 %
    0.1 X
    Качество диапазона 99.9 %
    CRC теста 4BCB2DB6
    CRC копии 4BCB2DB6
    Копирование... OK

    Ошибок не произошло

    AccurateRip: сводка

    Трек 1 нет в базе данных
    Трек 2 нет в базе данных
    Трек 3 нет в базе данных
    Трек 4 нет в базе данных
    Трек 5 нет в базе данных
    Трек 6 нет в базе данных
    Трек 7 нет в базе данных
    Трек 8 нет в базе данных
    Трек 9 нет в базе данных
    Трек 10 нет в базе данных
    Трек 11 нет в базе данных
    Трек 12 нет в базе данных
    Трек 13 нет в базе данных
    Трек 14 нет в базе данных
    Трек 15 нет в базе данных
    Трек 16 нет в базе данных

    Ни одного трека нет в базе AccurateRip

    Конец отчёта
    fooCDtect
    fooCDtect - foobar2000 + auCDtect, baralgin.

    auCDtect: CD records authenticity detector, version 0.8.2
    Copyright (c) 2004 Oleg Berngardt. All rights reserved.
    Copyright (c) 2004 Alexander Djourik. All rights reserved.

    mode: 0

    ===========================================
    Track: 01 - Ой на горі, на горі
    Quality: CDDA 100%
    ===========================================
    Track: 02 - Любив мене мужичок
    Quality: CDDA 100%
    ===========================================
    Track: 03 - Полечка поліська
    Quality: CDDA 100%
    ===========================================
    Track: 04 - Мене мати віддавала
    Quality: CDDA 100%
    ===========================================
    Track: 05 - Мила, моя
    Quality: CDDA 100%
    ===========================================
    Track: 06 - Ой, не світи, місяченьку
    Quality: CDDA 100%
    ===========================================
    Track: 07 - А до мене Яків приходив
    Quality: CDDA 100%
    ===========================================
    Track: 08 - Ой, куме, добра горілка
    Quality: CDDA 100%
    ===========================================
    Track: 09 - Тече вода каламутна
    Quality: CDDA 100%
    ===========================================
    Track: 10 - Ой, там на горі
    Quality: CDDA 100%
    ===========================================
    Track: 11 - Чорні очка, як терен
    Quality: CDDA 99%
    ===========================================
    Track: 12 - Пішов Іван в полонину
    Quality: CDDA 99%
    ===========================================
    Track: 13 - Ой, дівчино, шумить гай
    Quality: CDDA 100%
    ===========================================
    Track: 14 - Біля річки
    Quality: CDDA 100%
    ===========================================
    Track: 15 - Прийди до мене
    Quality: CDDA 99%
    ===========================================
    Track: 16 - Ой, сусідко
    Quality: CDDA 99%
    ===========================================

Тривалість: 05:24:12
Мова: українська
Аудіо-кодек: FLAC
Бітрейт: 1051-1075 кб/с
Джерело: рутрекер
Додаткова інформація:
виправлено всі помилки в назвах, тегах.. файл куе звичайний і вбудований


Якщо Ви справді бажаєте підтримати українське - після прослуховування, якщо музика вам сподобалась,
придбайте ліцензійний диск.
Підтримаймо вітчизняних виконавців!


Золотий реліз (завантажене не впливає на рейтинг)
 Трекер:    Зареєстрований   

Завантажити / скачати українську музику



відео для новачків



 Зареєстрований:   2012-12-07 02:16
 Розмір:   2.56 GB 
 Оцінка музики:   8.1/10 (Голосів: 19)
   
roni32 
Новенький


З нами з: 03.10.12
Востаннє: 15.11.16
Повідомлень: 2

2012-12-08 09:06  
2-й день завантажую, 2% зайшло і все,додайте швидкості будь-ласка
vnp-62 
Новенький


З нами з: 08.07.13
Востаннє: 07.10.16
Повідомлень: 1

2016-10-07 06:52  
Силка не працюе!!!!
Ваш часовий пояс: GMT + 2 Години

Нова тема   Відповісти