Завантажити та скачати торренти українською


Темний Лицар повертається / The Dark Knight Rises (2012) 720p [IMAX версія]

Нові коментарі

Нова тема   Відповісти
Автор Повідомлення
Drool 
VIP


З нами з: 17.04.10
Востаннє: 10.12.16
Повідомлень: 1270

2012-12-05 12:18  
Темний Лицар повертається / The Dark Knight Rises (2012) 720p [IMAX версія]

Жанр: фантастика, бойовик, трилер, драма, кримінал
Країна: США



Кіностудія / кінокомпанія: DC Entertainment, Legendary Pictures, Syncopy, Warner Bros. Pictures
Режисер: Крістофер Нолан
Актори: Крістіан Бейл, Том Харді, Енн Хетеуей, Джозеф Гордон-Левітт, Маріон Котійяр, Гарі Олдман, Морган Фріман, Майкл Кейн, Метью Модайн, Бен Мендельсон

Сюжет:
Вісім років тому Бетмен розчинився в ночі, перетворившись із героя в втікача. Прийнявши на себе провину за смерть прокурора Харві Дента, Темний лицар пожертвував всім. Разом з комісаром Гордоном вони вирішили, що так буде краще для всіх. Поки злочинність була розчавлена ​​антикримінальних актом Дента, брехня діяла.Але з появою хитрої злодійки із загадковим минулим все змінюється. Тим не менш, ще небезпечніше стає поява терориста Бейна, чиє обличчя закрите маскою. Він розгортає в Готем жахливу діяльність, змушуючи Брюса Уейна вийти з імпровізованого вигнання. Однак навіть одягнувши свій костюм, Бетмен може програти Бейну.


Тривалість: 02:44:33
Якість: 720p (джерело: Remux 1080p)
Відео:
кодек:
розмір кадру: 1280x720
бітрейт: 3354 кб/с

Аудіо:
мова: українська
переклад: професійний дубльований
кодек: 5.1
бітрейт: 448 кб/с

Джерело озвучення:
MediaInfo
General
Unique ID : 16879690870482835540876332244325980593 (0xCB2E90384DFBDA738B8FAFECD1559B1)
Complete name : /mnt/disk/Video/The.Dark.Knight.Rises.2012.Ukr.Dub..720p.IMAX.UAGet.mkv
Format : Matroska
File size : 4.37 GiB
Duration : 2h 44mn
Overall bit rate : 3 803 Kbps
Movie name : Темний Лицар повертається / The Dark Knight Rises (2012) 720p [IMAX версія] -=UAGet=-
Encoded date : UTC 2012-12-05 07:26:00
Writing application : mkvmerge v4.8.0 ('I Got The...') сборка от Aug 22 2011 13:16:28
Writing library : libebml v1.2.0 + libmatroska v1.1.0

Video
ID : 1
Format : AVC
Format/Info : Advanced Video Codec
Format profile : [email protected]
Format settings, CABAC : Yes
Format settings, ReFrames : 8 frames
Codec ID : V_MPEG4/ISO/AVC
Duration : 2h 44mn
Bit rate : 3 354 Kbps
Width : 1 280 pixels
Height : 720 pixels
Display aspect ratio : 16:9
Frame rate : 23.976 fps
Color space : YUV
Chroma subsampling : 4:2:0
Bit depth : 8 bits
Scan type : Progressive
Bits/(Pixel*Frame) : 0.152
Stream size : 3.77 GiB (86%)
Title : Темний Лицар повертається (2012) 720p [IMAX версія] -=UAGet=-
Writing library : core 128
Encoding settings : cabac=1 / ref=9 / deblock=1:-3:-3 / analyse=0x3:0x133 / me=umh / subme=11 / psy=1 / psy_rd=1,00:0,15 / mixed_ref=1 / me_range=32 / chroma_me=1 / trellis=2 / 8x8dct=1 / cqm=0 / deadzone=21,11 / fast_pskip=0 / chroma_qp_offset=-3 / threads=6 / lookahead_threads=1 / sliced_threads=0 / nr=0 / decimate=1 / interlaced=0 / bluray_compat=0 / constrained_intra=0 / bframes=9 / b_pyramid=1 / b_adapt=2 / b_bias=0 / direct=3 / weightb=1 / open_gop=0 / weightp=2 / keyint=240 / keyint_min=24 / scenecut=40 / intra_refresh=0 / rc=2pass / mbtree=0 / bitrate=3354 / ratetol=1,0 / qcomp=1,00 / qpmin=3 / qpmax=69 / qpstep=4 / cplxblur=20,0 / qblur=0,5 / ip_ratio=1,40 / pb_ratio=1,30 / aq=2:0,60
Color primaries : BT.709-5, BT.1361, IEC 61966-2-4, SMPTE RP177
Transfer characteristics : BT.709-5, BT.1361
Matrix coefficients : BT.709-5, BT.1361, IEC 61966-2-4 709, SMPTE RP177

Audio
ID : 2
Format : AC-3
Format/Info : Audio Coding 3
Mode extension : CM (complete main)
Codec ID : A_AC3
Duration : 2h 44mn
Bit rate mode : Constant
Bit rate : 448 Kbps
Channel(s) : 6 channels
Channel positions : Front: L C R, Side: L R, LFE
Sampling rate : 48.0 KHz
Bit depth : 16 bits
Compression mode : Lossy
Stream size : 527 MiB (12%)
Title : Українська (дубляж)
Language : Ukrainian
Info
[info]: frame I:2156 Avg QP:14,79 size: 92851 PSNR Mean Y:50,47 U:53,04 V:53,84 Avg:51,23 Global:50,62
[info]: frame P:48271 Avg QP:17,14 size: 36224 PSNR Mean Y:48,54 U:51,79 V:52,67 Avg:49,43 Global:48,70
[info]: frame B:186285 Avg QP:19,81 size: 11756 PSNR Mean Y:48,03 U:51,65 V:52,69 Avg:48,99 Global:48,07
[info]: consecutive B-frames: 1,7% 2,1% 6,0% 23,0% 15,2% 27,8% 8,8% 10,7% 3,0% 1,7%
[info]: mb I I16..4: 17,1% 62,0% 20,9%
[info]: mb P I16..4: 1,0% 9,5% 1,6% P16..4: 26,7% 32,1% 9,4% 2,3% 0,3% skip:17,2%
[info]: mb B I16..4: 0,1% 1,0% 0,1% B16..8: 32,7% 16,6% 2,2% direct: 3,8% skip:43,6% L0:41,3% L1:45,8% BI:12,9%
[info]: 8x8 transform intra:75,6% inter:54,6%
[info]: direct mvs spatial:98,4% temporal:1,6%
[info]: coded y,uvDC,uvAC intra: 85,8% 77,2% 58,9% inter: 17,4% 12,7% 2,9%
[info]: i16 v,h,dc,p: 12% 21% 21% 46%
[info]: i8 v,h,dc,ddl,ddr,vr,hd,vl,hu: 11% 10% 7% 9% 12% 12% 13% 12% 14%
[info]: i4 v,h,dc,ddl,ddr,vr,hd,vl,hu: 11% 15% 7% 8% 14% 12% 13% 9% 12%
[info]: i8c dc,h,v,p: 40% 28% 18% 14%
[info]: Weighted P-Frames: Y:7,9% UV:3,9%
[info]: ref P L0: 59,5% 7,1% 14,8% 6,8% 4,5% 3,3% 2,5% 1,4% 0,2% 0,0%
[info]: ref B L0: 82,8% 9,3% 4,1% 1,7% 1,1% 0,7% 0,4%
[info]: ref B L1: 92,5% 7,5%
[info]: SSIM Mean Y:0,9879902 (19,205db)
[info]: PSNR Mean Y:48,153 U:51,690 V:52,699 Avg:49,098 Global:48,205 kb/s:3353,56
Порівняльні скріншоти 1080p - 720p






Скріншоти








Реліз від:
Особиста оцінка: 10 - без зайвих вагань рекомендую всім!


 Трекер:    Зареєстрований   

Завантажити / скачати фільм українською



відео для новачків



 Зареєстрований:   2012-12-05 12:18
 Розмір:   4.37 GB 
 Оцінка фільму:   9.7/10 (Голосів: 45)
   
Yamaha 
Частий відвідувач


З нами з: 07.02.08
Востаннє: 07.11.16
Повідомлень: 27

2012-12-05 20:44  
Шкода, що немає оригінальної доріжки, варто було б додати окремим файлом. Дякую за реліз, люблю в 720 мати
Drool 
VIP


З нами з: 17.04.10
Востаннє: 10.12.16
Повідомлень: 1270

2012-12-05 22:44  
Yamaha написано:
Шкода, що немає оригінальної доріжки, варто було б додати окремим файлом.

Dolby Digital / 48 KHz / 448 kbps / 3/2 (L,C,R,l,r) + LFE ch

Yamaha 
Частий відвідувач


З нами з: 07.02.08
Востаннє: 07.11.16
Повідомлень: 27

2012-12-06 22:17  
Drool
Дякую!!

lpershyi 
Попереджень: 2
Попереджень: 2 


З нами з: 04.01.11
Востаннє: 30.11.16
Повідомлень: 2622

2013-01-03 22:59  
цікаво відколи "IMAX" версію можна дивитися без стереофонічних 3-Д окуляр?
Drool 
VIP


З нами з: 17.04.10
Востаннє: 10.12.16
Повідомлень: 1270

2013-01-03 23:12  
lpershyi написано:
цікаво відколи "IMAX" версію можна дивитися без стереофонічних 3-Д окуляр?

Ви десь побачили в описі "3D IMAX" ?

lpershyi 
Попереджень: 2
Попереджень: 2 


З нами з: 04.01.11
Востаннє: 30.11.16
Повідомлень: 2622

2013-01-04 00:31  
Drool написано:
3D IMAX
до 3.1.2013 жив з уявою, що всі фільми 3-Д знімають імакс способом, аналогічно й запитав Sad (1)
Drool 
VIP


З нами з: 17.04.10
Востаннє: 10.12.16
Повідомлень: 1270

2013-01-04 01:09  
lpershyi написано:
до 3.1.2013 жив з уявою, що всі фільми 3-Д знімають імакс способом, аналогічно й запитав

Якщо чесно - я не в курсі тонкощів всіх цих імаксів, але буває зустрічаються блюреї з поміткою "IMAX", вяких картинка містить в деяких місцях звужену картинку, як це видно на скріншотах. В чому прикол таке робити - поняття не маю, і чому помічають "IMAX" - так само.

UP. Погуглив. Отже, фільм містить сцени, зняті камерою IMAX під 1920x1080, тому у фільмі є сцени з різним співвідношенням - 16:9 (без чорних смуг) і 2.35:1 (з чорними смугами).

Віктор 
Відео Гуртом - субтитрування
Відео Гуртом - субтитрування


З нами з: 09.01.10
Востаннє: 11.12.16
Повідомлень: 8664

2013-01-04 01:18  
Drool написано:
IMAX

Це технологія зйомки особливою камерою, і коштує це шалені грошенята, тому знімають лише видовищні кадри, спецефекти, все решта звичайною камерою.

Про
lpershyi написано:
цікаво відколи "IMAX" версію можна дивитися без стереофонічних 3-Д окуляр?

краще промовчу.))

TurbolenT 
Новенький


З нами з: 13.12.11
Востаннє: 10.12.16
Повідомлень: 24

2013-03-31 11:44  
Все-таки Том Харді правильно вибрав час щоб підкачатисяWink (1)
IRONHIDE 
Свій


З нами з: 06.08.10
Востаннє: 10.12.16
Повідомлень: 121

2013-06-13 16:43  
не жалійте швидкості((((((((((((((((((((дайте будь ласка швидкість((((((((((((((((
tasyo110319 
Новенький


З нами з: 04.05.14
Востаннє: 10.12.16
Повідомлень: 14

2014-10-21 10:23  
станьте на роздачу)))
Ваш часовий пояс: GMT + 2 Години

Нова тема   Відповісти