Завантажити та скачати торренти українською


Гангстер / American Gangster (2007) 720p 2xUkr/Eng | Sub Eng

Нові коментарі

Нова тема   Відповісти
Автор Повідомлення
aalleexx85 
Відео Гуртом - фільмокрай
Відео Гуртом - фільмокрай


З нами з: 27.07.10
Востаннє: 05.12.16
Повідомлень: 1138

2012-11-28 14:38  
Гангстер / American Gangster (2007) 720p 2xUkr/Eng | Sub Eng

Гангстер / American Gangster (2007) 720p 2xUkr/Eng | Sub Eng

There are two sides to the American dream


Жанр: біографічний, кримінальний, драма
Країна: США



Кіностудія / кінокомпанія: Universal Pictures, Imagine Entertainment, Relativity Media
Режисер: Рідлі Скотт / Ridley Scott
Актори: Дензел Вашингтон / Denzel Washington, Рассел Кроу / Russell Crowe, Чіветель Еджіофор / Chiwetel Ejiofor, Джош Бролін / Josh Brolin, Лімарі Надал / Lymari Nadal, Тед Лівайн / Ted Levine, Роджер Гуенвер Сміт / Roger Guenveur Smith, Джон Хоукс / John Hawkes, РЗА / RZA, Юл Васкез / Yul Vazquez, Малькольм Гудвін / Malcolm Goodwin, Рубі Ді / Ruby Dee, Рубен Сантьяго-Хадсон / Ruben Santiago-Hudson, Карла Ґуджино / Carla Gugino, Скайлер Фортганг / Skyler Fortgang

Сюжет:
На початку 70-х років ХХ століття Френка Лукаса вважали наймогутнішим кримінальним босом Гарлему. Він заробив на наркотиках понад 50 млн. доларів; йому належала нерухомість у Детройті, будинки в Лос-Анджелесі та Маямі, великі земельні ділянки в Пуерто-Ріко та штаті Північна Кароліна. У Бангкоку Лукас через американських військових познайомився з місцевими наркоторговцями. Потім він хвалився, що переправив свою першу партію наркотиків з Бангкока в Нью-Йорк на літаку, який перевозив держсекретаря Генрі Кіссинджера. В подальшому наркотики доставлялись в трунах американських солдатів, що загинули у В'єтнамі.
Поліція та ФБР довго недооцінювали Френка, вважаючи його підставною особою. Одружившись з колишньою міс Пуерто-Ріко, гангстер думав про те, щоб залишити кримінальний бізнес, однак його вирахував і загнав у глухий кут Річард Робертс, колишній морський піхотинець і слідчий ФБР.


Тривалість: 02:36:57
Якість:
Відео:
кодек:
розмір кадру: 1280x694
бітрейт: 3786 кб/с

Аудіо # 1:
мова: українська
переклад: професійний дубльований
кодек: 5.1
бітрейт: 384 кб/с

Аудіо # 2:
мова: українська
переклад: багатоголосий закадровий Так Треба Продакшн на замовлення
кодек: 2.0
бітрейт: 192 кб/с

Аудіо # 3:
мова: англійська
переклад: оригінал
кодек: 5.1
бітрейт: 384 кб/с

Усі звукові доріжки взяті з релізу karvai0

Субтитри:
мова: англійська
тип: програмні (м'які)
формат: *.srt
MediaInfo:
General
Unique ID : 245270196593904092472608887616833667913 (0xB8855254F0DB1BF5BC4E9CD34F614349)
Complete name : D:\American Gangster (2007) [2xUkr,Eng] 720p [Hurtom].mkv
Format : Matroska
Format version : Version 2
File size : 5.31 GiB
Duration : 2h 36mn
Overall bit rate : 4 842 Kbps
Movie name : American Gangster (2007) [2xUkr,Eng] 720p [Hurtom]
Encoded date : UTC 2012-11-27 17:45:48
Writing application : mkvmerge v4.9.1 ('Ich will') зібрано Jul 11 2011 23:53:15
Writing library : libebml v1.2.1 + libmatroska v1.1.1

Video
ID : 1
Format : AVC
Format/Info : Advanced Video Codec
Format profile : [email protected]
Format settings, CABAC : Yes
Format settings, ReFrames : 8 frames
Codec ID : V_MPEG4/ISO/AVC
Duration : 2h 36mn
Bit rate : 3 786 Kbps
Width : 1 280 pixels
Height : 694 pixels
Display aspect ratio : 16:9
Frame rate : 23.976 fps
Color space : YUV
Chroma subsampling : 4:2:0
Bit depth : 8 bits
Scan type : Progressive
Bits/(Pixel*Frame) : 0.178
Stream size : 4.15 GiB (78%)
Title : American Gangster (2007) [2xUkr,Eng] 720p [Hurtom]
Writing library : core 98 r1649 20cbe10
Encoding settings : cabac=1 / ref=8 / deblock=1:-3:-3 / analyse=0x3:0x133 / me=umh / subme=9 / psy=1 / psy_rd=1.10:0.20 / mixed_ref=1 / me_range=24 / chroma_me=1 / trellis=2 / 8x8dct=1 / cqm=0 / deadzone=21,11 / fast_pskip=0 / chroma_qp_offset=-3 / threads=6 / sliced_threads=0 / nr=0 / decimate=1 / interlaced=0 / constrained_intra=0 / bframes=10 / b_pyramid=2 / b_adapt=2 / b_bias=0 / direct=1 / weightb=1 / weightp=2 / keyint=250 / keyint_min=25 / scenecut=40 / intra_refresh=0 / rc_lookahead=40 / rc=crf / mbtree=0 / crf=18.0 / qcomp=0.60 / qpmin=10 / qpmax=51 / qpstep=4 / vbv_maxrate=16500 / vbv_bufsize=16000 / crf_max=0.0 / ip_ratio=1.40 / pb_ratio=1.30 / aq=1:0.80 / nal_hrd=none
Language : English
Default : Yes
Forced : No

Audio #1
ID : 2
Format : AC-3
Format/Info : Audio Coding 3
Mode extension : CM (complete main)
Codec ID : A_AC3
Duration : 2h 36mn
Bit rate mode : Constant
Bit rate : 384 Kbps
Channel(s) : 6 channels
Channel positions : Front: L C R, Side: L R, LFE
Sampling rate : 48.0 KHz
Bit depth : 16 bits
Compression mode : Lossy
Stream size : 431 MiB (8%)
Title : dub
Language : Ukrainian
Default : Yes
Forced : No

Audio #2
ID : 3
Format : AC-3
Format/Info : Audio Coding 3
Mode extension : CM (complete main)
Codec ID : A_AC3
Duration : 2h 36mn
Bit rate mode : Constant
Bit rate : 192 Kbps
Channel(s) : 2 channels
Channel positions : Front: L R
Sampling rate : 48.0 KHz
Bit depth : 16 bits
Compression mode : Lossy
Stream size : 216 MiB (4%)
Title : tak treba production
Language : Ukrainian
Default : No
Forced : No

Audio #3
ID : 4
Format : AC-3
Format/Info : Audio Coding 3
Mode extension : CM (complete main)
Codec ID : A_AC3
Duration : 2h 36mn
Bit rate mode : Constant
Bit rate : 384 Kbps
Channel(s) : 6 channels
Channel positions : Front: L C R, Side: L R, LFE
Sampling rate : 48.0 KHz
Bit depth : 16 bits
Compression mode : Lossy
Stream size : 431 MiB (8%)
Title : original
Language : English
Default : No
Forced : No

Text
ID : 5
Format : UTF-8
Codec ID : S_TEXT/UTF8
Codec ID/Info : UTF-8 Plain Text
Title : english
Language : English
Default : No
Forced : No
Скріншоти:





Джерело:
Особиста оцінка: 10 - без зайвих вагань рекомендую всім!


 Трекер:    Зареєстрований   

Завантажити / скачати фільм українською



відео для новачків



 Зареєстрований:   2012-11-28 14:38
 Розмір:   5.31 GB 
 Оцінка фільму:   9.5/10 (Голосів: 25)
   
leroykendall 
Модератор HD


З нами з: 03.01.11
Востаннє: 20.11.16
Повідомлень: 749

2012-11-28 23:35  
aalleexx85 написано:
бітрейт: 3761 кб/с

aalleexx85 написано:
Bit rate : 3 786 Kbps

Виправіть бітрейт.

Ваш часовий пояс: GMT + 2 Години

Нова тема   Відповісти