Завантажити та скачати торренти українською


Механічний Апельсин - Цирк квітів (2011) [WV] | Rock

Нові коментарі

Нова тема   Відповісти
Останній раз роздавалося ssTAss (2016-12-11)
Автор Повідомлення
ssTAss 
Модератор музики


З нами з: 05.07.08
Востаннє: 11.12.16
Повідомлень: 10958

2012-11-25 23:17  
Механічний Апельсин - Цирк квітів (2011) [WV] | Rock

Механічний Апельсин - Цирк квітів (2011) [WV] | Rock


Стиль: Rock
Країна, місто: Україна, Борислав
Сайти: Офіційний сайт
Видавець: Moon Records
Виконавці:
Юра – вокал, ритм-гітара, банджо
Ерік – соло-гітара, клавішні
Саша – бас-гітара
Андрій – ударні, перкусія
Пісні:
    1.Я з тобою
    2.Більше не плач
    3.Вітер як вітер
    4.Я приходив з дощем
    5.Цирк квітів
    6.Ти не кричи, мовчи
    7.Красива річ
    8.Стєрва
    9.Сталевий лев
    10.Така робота
    11.Ти сама
    12.Ми будем разом (Я і Ти)
log
Exact Audio Copy V1.0 beta 3 from 29. August 2011

EAC extraction logfile from 10. October 2012, 16:25

Механічний апельсин / Цирк квітів

Used drive : _NEC DVD_RW ND-3540A Adapter: 3 ID: 0

Read mode : Secure
Utilize accurate stream : Yes
Defeat audio cache : Yes
Make use of C2 pointers : No

Read offset correction : 48
Overread into Lead-In and Lead-Out : No
Fill up missing offset samples with silence : Yes
Delete leading and trailing silent blocks : No
Null samples used in CRC calculations : Yes
Used interface : Installed external ASPI interface

Used output format : User Defined Encoder
Selected bitrate : 1024 kBit/s
Quality : High
Add ID3 tag : No
Command line compressor : C:\Program Files\Exact Audio Copy\wavpack.exe
Additional command line options : -hlmx2 %source% %dest%

TOC of the extracted CD

Track | Start | Length | Start sector | End sector
---------------------------------------------------------
1 | 0:00.00 | 2:57.42 | 0 | 13316
2 | 2:57.42 | 3:37.26 | 13317 | 29617
3 | 6:34.68 | 2:44.56 | 29618 | 41973
4 | 9:19.49 | 3:23.44 | 41974 | 57242
5 | 12:43.18 | 3:27.44 | 57243 | 72811
6 | 16:10.62 | 4:29.21 | 72812 | 93007
7 | 20:40.08 | 3:03.10 | 93008 | 106742
8 | 23:43.18 | 5:24.57 | 106743 | 131099
9 | 29:08.00 | 4:10.71 | 131100 | 149920
10 | 33:18.71 | 3:28.22 | 149921 | 165542
11 | 36:47.18 | 3:51.71 | 165543 | 182938
12 | 40:39.14 | 4:16.44 | 182939 | 202182

Range status and errors

Selected range

Filename C:\Temporary Files\NetLab\Механічний апельсин - Цирк квітів (2011)\Механічний апельсин - Цирк квітів.wav

Peak level 98.8 %
Extraction speed 5.7 X
Range quality 100.0 %
Test CRC CCADA642
Copy CRC CCADA642
Copy OK

No errors occurred

AccurateRip summary

Track 1 not present in database
Track 2 not present in database
Track 3 not present in database
Track 4 not present in database
Track 5 not present in database
Track 6 not present in database
Track 7 not present in database
Track 8 not present in database
Track 9 not present in database
Track 10 not present in database
Track 11 not present in database
Track 12 not present in database

None of the tracks are present in the AccurateRip database

End of status report

---- CUETools DB Plugin V2.1.3

[CTDB TOCID: T4NIYMAglaGdQNpGHcSPPAqrH9w-] found, Submit result: already submitted
[733dc776] (1/1) Accurately ripped
fooCDtect
fooCDtect - foobar2000 + auCDtect, baralgin.

auCDtect: CD records authenticity detector, version 0.8.2
Copyright (c) 2004 Oleg Berngardt. All rights reserved.
Copyright (c) 2004 Alexander Djourik. All rights reserved.

mode: 0

===========================================
Track: 01 - Я З Тобою
Quality: CDDA 100%
===========================================
Track: 02 - Більше Не Плач
Quality: MPEG 95%
===========================================
Track: 03 - Вітер Як Вітер
Quality: CDDA 100%
===========================================
Track: 04 - Я Приходив З Дощем
Quality: CDDA 100%
===========================================
Track: 05 - Цирк Квітів
Quality: CDDA 100%
===========================================
Track: 06 - Ти Не Кричи, Мовчи
Quality: CDDA 100%
===========================================
Track: 07 - Красива Річ
Quality: CDDA 100%
===========================================
Track: 08 - Стєрва
Quality: CDDA 100%
===========================================
Track: 09 - Сталевий Лев
Quality: CDDA 100%
===========================================
Track: 10 - Така Робота
Quality: CDDA 100%
===========================================
Track: 11 - Ти Сама
Quality: CDDA 100%
===========================================
Track: 12 - Ми Будем Разом (Я І Ти)
Quality: MPEG 95%
===========================================
Тривалість: 00:44:56
Мова: українська
Аудіо-кодек: WavPack
Бітрейт: 1037 кб/с
Джерело: нетлаб
Додаткова інформація:
Гурт "Механічний Апельсин" має непростий шлях – наприклад, свій дебютний альбом він випустив лише на 17-му році особистої історії. Зараз йому вже майже 20, і другий альбом, "Цирк квітів", звучить значно більш виважено, серйозно – по-іншому. При цьому стильова основа лишилася незмінною – блюз-рок. Хай з невеличкими домішками – як-от регі, ска і т.д. – але це він. Іншими словами, гурт не піддається спокусі полегшити звучання і смислове навантаження – спокусі, яка косить більшість наших молодих рок-гуртів. "Механічний Апельсин" – лишається собою. Можливо, така музика сьогодні для багатьох звучить, як своєрідне ретро – але для багатьох саме така музика відповідає принципу чесності. Жадного макіяжу, прикидання – все так, як воно є насправді. Сьогодні це, на жаль, така рідкість...


Якщо Ви справді бажаєте підтримати українське - після прослуховування, якщо музика вам сподобалась,
придбайте ліцензійний диск.
Підтримаймо вітчизняних виконавців!


Срібний реліз (на рейтинг впливає 50% завантаженого)
 Трекер:    Зареєстрований   

Завантажити / скачати українську музику



відео для новачків



 Зареєстрований:   2012-11-25 23:17
 Розмір:   354 MB 
 Оцінка музики:   6.1/10 (Голосів: 7)
   
ssTAss 
Модератор музики


З нами з: 05.07.08
Востаннє: 11.12.16
Повідомлень: 10958

2012-11-25 23:18  
Ваш часовий пояс: GMT + 2 Години

Нова тема   Відповісти