Завантажити та скачати торренти українською


Опіум (ОпіUм) - Молися на мене (2008) [WV] | Rock

Нові коментарі

Нова тема   Відповісти
Останній раз роздавалося ssTAss (2016-12-09)
Автор Повідомлення
ssTAss 
Модератор музики


З нами з: 05.07.08
Востаннє: 09.12.16
Повідомлень: 10948

2012-11-25 19:10  
Опіум (ОпіUм) - Молися на мене (2008) [WV] | Rock

Опіум (ОпіUм) - Молися на мене (2008) [WV] | Rock


Стиль: Rock
Країна, місто: Україна, Львів
Сайти: Офіційний сайт
Видавець: Олександр Іващук
Виконавці:
Олександр Іващук – вокал, гітара
Роман Кучерак – гітара
Антон Мінчук – барабани, перкусія
Ярослав Швед – синтезатори, програмування
Володимир Котляров - віолончель
Юрій Баковський - бас
Пісні:
    1. Дощем і піском
    2. Брат
    3. Дотики
    4. Не потрібна нікому (Вона)
    5. Непробачена
    6. Анатомія болю
    7. Я повернусь
    8. Молися на мене
    9. Сьогодні я
    10. Ті, що люблять рок
log
Exact Audio Copy V1.0 beta 3 from 29. August 2011

EAC extraction logfile from 6. October 2012, 15:38

Опіум / Молися на мене

Used drive : _NEC DVD_RW ND-3540A Adapter: 3 ID: 0

Read mode : Secure
Utilize accurate stream : Yes
Defeat audio cache : Yes
Make use of C2 pointers : No

Read offset correction : 48
Overread into Lead-In and Lead-Out : No
Fill up missing offset samples with silence : Yes
Delete leading and trailing silent blocks : No
Null samples used in CRC calculations : Yes
Used interface : Installed external ASPI interface

Used output format : User Defined Encoder
Selected bitrate : 1024 kBit/s
Quality : High
Add ID3 tag : No
Command line compressor : C:\Program Files\Exact Audio Copy\wavpack.exe
Additional command line options : -hlmx2 %source% %dest%

TOC of the extracted CD

Track | Start | Length | Start sector | End sector
---------------------------------------------------------
1 | 0:00.00 | 2:52.37 | 0 | 12936
2 | 2:52.37 | 5:07.41 | 12937 | 36002
3 | 8:00.03 | 5:22.00 | 36003 | 60152
4 | 13:22.03 | 5:09.72 | 60153 | 83399
5 | 18:32.00 | 4:54.03 | 83400 | 105452
6 | 23:26.03 | 2:48.57 | 105453 | 118109
7 | 26:14.60 | 4:15.58 | 118110 | 137292
8 | 30:30.43 | 5:31.56 | 137293 | 162173
9 | 36:02.24 | 5:03.39 | 162174 | 184937
10 | 41:05.63 | 4:13.36 | 184938 | 203948

Range status and errors

Selected range

Filename C:\Temporary Files\NetLab\Опіум - Молися на мене (2008)\Опіум - Молися на мене.wav

Peak level 95.6 %
Extraction speed 6.0 X
Range quality 100.0 %
Test CRC 73FC2B33
Copy CRC 73FC2B33
Copy OK

No errors occurred

AccurateRip summary

Track 1 not present in database
Track 2 not present in database
Track 3 not present in database
Track 4 not present in database
Track 5 not present in database
Track 6 not present in database
Track 7 not present in database
Track 8 not present in database
Track 9 not present in database
Track 10 not present in database

None of the tracks are present in the AccurateRip database

End of status report

---- CUETools DB Plugin V2.1.3

[CTDB TOCID: VdSekhy_AAESDyIBuuAdtGh_ARE-] disk not present in database, Submit result: VdSekhy_AAESDyIBuuAdtGh_ARE- has been uploaded
fooCDtect
fooCDtect - foobar2000 + auCDtect, baralgin.

auCDtect: CD records authenticity detector, version 0.8.2
Copyright (c) 2004 Oleg Berngardt. All rights reserved.
Copyright (c) 2004 Alexander Djourik. All rights reserved.

mode: 0

===========================================
Track: 01 - Дощем І Піском
Quality: CDDA 100%
===========================================
Track: 02 - Брат
Quality: CDDA 100%
===========================================
Track: 03 - Дотики
Quality: CDDA 99%
===========================================
Track: 04 - Не Потрібна Нікому (Вона)
Quality: CDDA 100%
===========================================
Track: 05 - Непробачена
Quality: CDDA 100%
===========================================
Track: 06 - Анатомія Болю
Quality: CDDA 99%
===========================================
Track: 07 - Я Повернусь
Quality: CDDA 100%
===========================================
Track: 08 - Молися На Мене
Quality: CDDA 100%
===========================================
Track: 09 - Сьогодні Я
Quality: CDDA 100%
===========================================
Track: 10 - Ті, Що Люблять Рок
Quality: CDDA 100%
===========================================
Тривалість: 00:45:19
Мова: українська
Аудіо-кодек: WavPack
Бітрейт: 945 кб/с
Джерело: нетлаб
Додаткова інформація:
Офіційно це лише перший альбом львівського гурту "Опіум" – хоча насправді за час існування гурту альбомів було напрацьовано вже цілих три. Інша справа, що перші два не вдалося повноцінно видати – але то вже інша історія. Так чи інакше, досвіду музикантам не бракує, тож і нинішня платівка зовсім не звучить "зеленою". В наш час майже немає музики, у якій доволі ясно не читався би вплив того чи іншого гурту, стилю – це норма. Зрештою, родовід будь-якого сучасного альбому можна якось привести, як мінімум, до 60-х років минулого сторіччя. Але "Опіум" чесно шукає свою власну рок-мову і в текстах, і в музиці – принаймні, наявність чужих впливів не надто кидається в око, і це приємно. На наш погляд, "Опіум" грає простий класичний рок – а це, погодьтеся, не так вже й просто (зважаючи на численні спокуси тих самих впливів). До того ж, і тексти пісень зовсім не схожі на простий набір рим і розмірів – в ці слова явно вкладено пережитий досвід, живі думки і відчуття. Ну а чесні пісні, гадаємо, завжди зможуть знайти собі вдячного слухача. Чи не так?


Якщо Ви справді бажаєте підтримати українське - після прослуховування, якщо музика вам сподобалась,
придбайте ліцензійний диск.
Підтримаймо вітчизняних виконавців!


Срібний реліз (на рейтинг впливає 50% завантаженого)
 Трекер:    Зареєстрований   

Завантажити / скачати українську музику



відео для новачків



 Зареєстрований:   2012-11-25 19:10
 Розмір:   350 MB 
 Оцінка музики:   4.6/10 (Голосів: 5)
   
ssTAss 
Модератор музики


З нами з: 05.07.08
Востаннє: 09.12.16
Повідомлень: 10948

2012-11-25 19:17  
Ваш часовий пояс: GMT + 2 Години

Нова тема   Відповісти