Завантажити та скачати торренти українською


Zоряна - Play (2012) [FLAC] | Pop-Rock

Нові коментарі

Нова тема   Відповісти
Останній раз роздавалося exlg6633 (2016-10-16)
Автор Повідомлення
muhomor 
VIP


З нами з: 04.12.11
Востаннє: 29.11.16
Повідомлень: 297

2012-11-25 16:21  
Zоряна - Play (2012) [FLAC] | Pop-Rock

Zоряна - Play (2012) [FLAC] | Pop-Rock


Стиль: Pop-Rock
Країна, місто: Україна, Львів
Сайти: Офіційний сайт
Видавець: Наш ФОРМАТ
Виконавці:
Zоряна - вокал
Олександр Кулик - гітара
Акімич - бас-гітара
Ігор - клавіші
Андрій Капа - барабани
Пісні:
    01. Включаю iPlay
    02. Кіно
    03. Мохіто
    04. Квітка
    05. Тікай
    06. Сан-Франциско
    07. Мода На Любов
    08. Так Мало
    09. На Старт!
    10. Зачекай
    11. Наша Зима
    12. Шукаю
    13. Небо
    14. Серце
    15. Кіно (Bald Bros remix)
    16. Мохіто (Gvozdini remix)
    17. Включаю iPlay ( Myshlovski remix)

    Оригінальний диск містить два кліпи:
    01. Включаю iPlay

    Тривалість: 00:03:33
    Якість:
    Відео:
    кодек: MPEG-4
    розмір кадру: 640x480
    бітрейт: 1485 кб/с

    Аудіо:
    мова: українська
    кодек: PCM
    бітрейт: 1536 кб/с
    Скріншоти:
    Zоряна - Play (2012) [FLAC] | Pop-Rock
    02. Мохіто

    Тривалість: 00:03:14
    Якість:
    Відео:
    кодек: MPEG-4
    розмір кадру: 1280x720
    бітрейт: 2474 кб/с

    Аудіо:
    мова: українська
    кодек: PCM
    бітрейт: 1536 кб/с
    Скріншоти:
    Zоряна - Play (2012) [FLAC] | Pop-Rock

Тривалість: 00:55:23
Мова: українська
Аудіо-кодек: FLAC
Бітрейт: 1000 кб/с
Джерело: ріп із власного CD
Audiochecker

AUDIOCHECKER v2.0 beta (build 457) - by Dester - [email protected]
~~~~~~~~~~~~~~~~~~~~~~~~~~~~~~~~~~

Started at: воскресенье, 25. 11. 2012. - 16:05.05
17 files found

01 -===- D:\hurtom.com\Zоряна - «Play» (2012) (FLAC)\17 Zоряна Включаю iPlay (Myshlovski remix).flac
Extracted successfully
Conclusion: this track is CDDA with probability 100%
Tempfile successfully deleted.

02 -===- D:\hurtom.com\Zоряна - «Play» (2012) (FLAC)\01 Zоряна Включаю iPlay.flac
Extracted successfully
Conclusion: this track is CDDA with probability 100%
Tempfile successfully deleted.

03 -===- D:\hurtom.com\Zоряна - «Play» (2012) (FLAC)\02 Zоряна Кіно.flac
Extracted successfully
Conclusion: this track is CDDA with probability 100%
Tempfile successfully deleted.

04 -===- D:\hurtom.com\Zоряна - «Play» (2012) (FLAC)\03 Zоряна Мохіто.flac
Extracted successfully
Conclusion: this track is CDDA with probability 100%
Tempfile successfully deleted.

05 -===- D:\hurtom.com\Zоряна - «Play» (2012) (FLAC)\04 Zоряна Квітка.flac
Extracted successfully
Conclusion: this track is MPEG with probability 85%
Tempfile successfully deleted.

06 -===- D:\hurtom.com\Zоряна - «Play» (2012) (FLAC)\05 Zоряна Тікай.flac
Extracted successfully
Conclusion: this track is CDDA with probability 100%
Tempfile successfully deleted.

07 -===- D:\hurtom.com\Zоряна - «Play» (2012) (FLAC)\06 Zоряна Сан-Франциско.flac
Extracted successfully
Conclusion: this track is CDDA with probability 100%
Tempfile successfully deleted.

08 -===- D:\hurtom.com\Zоряна - «Play» (2012) (FLAC)\07 Zоряна Мода На Любов.flac
Extracted successfully
Conclusion: this track is CDDA with probability 86%
Tempfile successfully deleted.

09 -===- D:\hurtom.com\Zоряна - «Play» (2012) (FLAC)\08 Zоряна Так Мало.flac
Extracted successfully
Conclusion: this track is CDDA with probability 100%
Tempfile successfully deleted.

10 -===- D:\hurtom.com\Zоряна - «Play» (2012) (FLAC)\09 Zоряна На Старт!.flac
Extracted successfully
Conclusion: this track is CDDA with probability 100%
Tempfile successfully deleted.

11 -===- D:\hurtom.com\Zоряна - «Play» (2012) (FLAC)\10 Zоряна Зачекай.flac
Extracted successfully
Conclusion: this track is CDDA with probability 100%
Tempfile successfully deleted.

12 -===- D:\hurtom.com\Zоряна - «Play» (2012) (FLAC)\11 Zоряна Наша Зима.flac
Extracted successfully
Conclusion: this track is CDDA with probability 100%
Tempfile successfully deleted.

13 -===- D:\hurtom.com\Zоряна - «Play» (2012) (FLAC)\12 Zоряна Шукаю.flac
Extracted successfully
Conclusion: this track is CDDA with probability 100%
Tempfile successfully deleted.

14 -===- D:\hurtom.com\Zоряна - «Play» (2012) (FLAC)\13 Zоряна Небо.flac
Extracted successfully
Conclusion: this track is MPEG with probability 100%
Tempfile successfully deleted.

15 -===- D:\hurtom.com\Zоряна - «Play» (2012) (FLAC)\14 Zоряна Серце.flac
Extracted successfully
Conclusion: this track is CDDA with probability 99%
Tempfile successfully deleted.

16 -===- D:\hurtom.com\Zоряна - «Play» (2012) (FLAC)\15 Zоряна Кіно (Bald Bros remix).flac
Extracted successfully
Conclusion: this track is MPEG with probability 100%
Tempfile successfully deleted.

17 -===- D:\hurtom.com\Zоряна - «Play» (2012) (FLAC)\16 Zоряна Мохіто (Gvozdini remix).flac
Extracted successfully
Conclusion: this track is CDDA with probability 100%
Tempfile successfully deleted.

Finished at: воскресенье, 25. 11. 2012. - 16:10.34 (operation time: 0:05.29)
Log

Exact Audio Copy V1.0 beta 3 from 29. August 2011

Отчёт EAC об извлечении, выполненном 25. ноября 2012, 16:02

Zоряна / «Play»

Дисковод: ASUS DRW-2014S1T Adapter: 2 ID: 8

Режим чтения : Достоверность
Использование точного потока : Да
Отключение кэша аудио : Да
Использование указателей C2 : Нет

Коррекция смещения при чтении : 0
Способность читать области Lead-in и Lead-out : Нет
Заполнение пропущенных сэмплов тишиной : Да
Удаление блоков с тишиной в начале и конце : Нет
При вычислениях CRC использовались нулевые сэмплы : Да
Интерфейс : Встроенный Win32-интерфейс для Win NT/2000
Обработка зазоров : Добавлено к предыдущему треку

Выходной формат : Пользовательский кодировщик
Выбранный битрейт : 128 kBit/s
Качество : Высокий
Добавление ID3-тега : Нет
Утилита сжатия : C:\Program Files\Exact Audio Copy\Flac\flac.exe
Дополнительные параметры : -V -8 -T "Genre=%genre%" -T "Artist=%artist%" -T "Title=%title%" -T "Album=%albumtitle%" -T "Date=%year%" -T "Tracknumber=%tracknr%" -T "Comment=%comment%" %source%

TOC извлечённого CD

Трек | Старт | Длительность | Начальный сектор | Конечный сектор
---------------------------------------------------------------------
1 | 0:00.00 | 3:54.59 | 0 | 17608
2 | 3:54.59 | 3:17.60 | 17609 | 32443
3 | 7:12.44 | 3:12.55 | 32444 | 46898
4 | 10:25.24 | 3:00.29 | 46899 | 60427
5 | 13:25.53 | 3:08.39 | 60428 | 74566
6 | 16:34.17 | 3:28.04 | 74567 | 90170
7 | 20:02.21 | 3:09.28 | 90171 | 104373
8 | 23:11.49 | 2:52.27 | 104374 | 117300
9 | 26:04.01 | 3:12.38 | 117301 | 131738
10 | 29:16.39 | 3:11.62 | 131739 | 146125
11 | 32:28.26 | 2:50.42 | 146126 | 158917
12 | 35:18.68 | 3:23.65 | 158918 | 174207
13 | 38:42.58 | 3:31.10 | 174208 | 190042
14 | 42:13.68 | 3:17.60 | 190043 | 204877
15 | 45:31.53 | 3:10.42 | 204878 | 219169
16 | 48:42.20 | 3:25.67 | 219170 | 234611
17 | 52:08.12 | 3:24.01 | 234612 | 249912
18 | 58:04.13 | 19:29.02 | 261313 | 348989

Трек 1

Имя файла D:\Documents and Settings\user\Рабочий стол\«»—0–\01 Zоряна Включаю iPlay.wav

Длина предзазора 0:00:02.00

Пиковый уровень 92.8 %
Скорость извлечения 5.8 X
Качество трека 100.0 %
CRC теста 5A576223
CRC копии 5A576223
Копирование... OK

Трек 2

Имя файла D:\Documents and Settings\user\Рабочий стол\«»—0–\02 Zоряна Кіно.wav

Длина предзазора 0:00:02.00

Пиковый уровень 93.2 %
Скорость извлечения 6.1 X
Качество трека 100.0 %
CRC теста A90AEE74
CRC копии A90AEE74
Копирование... OK

Трек 3

Имя файла D:\Documents and Settings\user\Рабочий стол\«»—0–\03 Zоряна Мохіто.wav

Длина предзазора 0:00:02.00

Пиковый уровень 95.9 %
Скорость извлечения 6.3 X
Качество трека 100.0 %
CRC теста 2096BAC8
CRC копии 2096BAC8
Копирование... OK

Трек 4

Имя файла D:\Documents and Settings\user\Рабочий стол\«»—0–\04 Zоряна Квітка.wav

Длина предзазора 0:00:02.00

Пиковый уровень 95.1 %
Скорость извлечения 6.7 X
Качество трека 100.0 %
CRC теста B346F266
CRC копии B346F266
Копирование... OK

Трек 5

Имя файла D:\Documents and Settings\user\Рабочий стол\«»—0–\05 Zоряна Тікай.wav

Длина предзазора 0:00:02.00

Пиковый уровень 95.2 %
Скорость извлечения 7.0 X
Качество трека 100.0 %
CRC теста 58D1D7CB
CRC копии 58D1D7CB
Копирование... OK

Трек 6

Имя файла D:\Documents and Settings\user\Рабочий стол\«»—0–\06 Zоряна Сан-Франциско.wav

Длина предзазора 0:00:02.00

Пиковый уровень 96.2 %
Скорость извлечения 7.5 X
Качество трека 100.0 %
CRC теста C46531DA
CRC копии C46531DA
Копирование... OK

Трек 7

Имя файла D:\Documents and Settings\user\Рабочий стол\«»—0–\07 Zоряна Мода На Любов.wav

Длина предзазора 0:00:02.00

Пиковый уровень 97.0 %
Скорость извлечения 7.7 X
Качество трека 100.0 %
CRC теста 44597328
CRC копии 44597328
Копирование... OK

Трек 8

Имя файла D:\Documents and Settings\user\Рабочий стол\«»—0–\08 Zоряна Так Мало.wav

Длина предзазора 0:00:02.00

Пиковый уровень 96.6 %
Скорость извлечения 7.8 X
Качество трека 100.0 %
CRC теста 5A09B824
CRC копии 5A09B824
Копирование... OK

Трек 9

Имя файла D:\Documents and Settings\user\Рабочий стол\«»—0–\09 Zоряна На Старт!.wav

Длина предзазора 0:00:02.00

Пиковый уровень 95.5 %
Скорость извлечения 8.3 X
Качество трека 100.0 %
CRC теста 3514B8B0
CRC копии 3514B8B0
Копирование... OK

Трек 10

Имя файла D:\Documents and Settings\user\Рабочий стол\«»—0–\10 Zоряна Зачекай.wav

Длина предзазора 0:00:02.00

Пиковый уровень 98.8 %
Скорость извлечения 8.5 X
Качество трека 100.0 %
CRC теста 30E2ACA9
CRC копии 30E2ACA9
Копирование... OK

Трек 11

Имя файла D:\Documents and Settings\user\Рабочий стол\«»—0–\11 Zоряна Наша Зима.wav

Длина предзазора 0:00:02.00

Пиковый уровень 97.7 %
Скорость извлечения 8.5 X
Качество трека 100.0 %
CRC теста D288A218
CRC копии D288A218
Копирование... OK

Трек 12

Имя файла D:\Documents and Settings\user\Рабочий стол\«»—0–\12 Zоряна Шукаю.wav

Длина предзазора 0:00:02.00

Пиковый уровень 97.7 %
Скорость извлечения 7.8 X
Качество трека 99.9 %
CRC теста 07E54335
CRC копии 07E54335
Копирование... OK

Трек 13

Имя файла D:\Documents and Settings\user\Рабочий стол\«»—0–\13 Zоряна Небо.wav

Длина предзазора 0:00:02.00

Пиковый уровень 96.5 %
Скорость извлечения 8.1 X
Качество трека 99.9 %
CRC теста 1F4C3D64
CRC копии 1F4C3D64
Копирование... OK

Трек 14

Имя файла D:\Documents and Settings\user\Рабочий стол\«»—0–\14 Zоряна Серце.wav

Длина предзазора 0:00:02.00

Пиковый уровень 95.0 %
Скорость извлечения 9.5 X
Качество трека 100.0 %
CRC теста 5CA60125
CRC копии 5CA60125
Копирование... OK

Трек 15

Имя файла D:\Documents and Settings\user\Рабочий стол\«»—0–\15 Zоряна Кіно (Bald Bros remix).wav

Длина предзазора 0:00:02.00

Пиковый уровень 89.3 %
Скорость извлечения 7.8 X
Качество трека 99.9 %
CRC теста E7E0B67D
CRC копии E7E0B67D
Копирование... OK

Трек 16

Имя файла D:\Documents and Settings\user\Рабочий стол\«»—0–\16 Zоряна Мохіто (Gvozdini remix).wav

Длина предзазора 0:00:02.00

Пиковый уровень 98.4 %
Скорость извлечения 8.9 X
Качество трека 100.0 %
CRC теста 76CAB8D3
CRC копии 76CAB8D3
Копирование... OK

Трек 17

Имя файла D:\Documents and Settings\user\Рабочий стол\«»—0–\17 Zоряна Включаю iPlay (Myshlovski remix).wav

Длина предзазора 0:00:02.00

Пиковый уровень 95.5 %
Скорость извлечения 9.9 X
Качество трека 100.0 %
CRC теста 2ECAFA46
CRC копии 2ECAFA46
Копирование... OK

Ошибок не произошло

Конец отчёта

==== Контрольная сумма отчёта 93A998261DFD0A10F46314798F9B30DBE5812501379992E0810E75C9690CC817 ====


Срібний реліз (на рейтинг впливає 50% завантаженого)
 Трекер:    Зареєстрований   

Завантажити / скачати українську музику



відео для новачків



 Зареєстрований:   2012-12-11 23:36
 Розмір:   568 MB 
 Оцінка музики:   10/10 (Голосів: 7)
   
ssTAss 
Модератор музики


З нами з: 05.07.08
Востаннє: 02.12.16
Повідомлень: 10928

2012-12-12 23:46  
увага! до релізу додано відео з диску
Ваш часовий пояс: GMT + 2 Години

Нова тема   Відповісти