Завантажити та скачати торренти українською


Kozak System - Шабля (2012) [FLAC] | Ethno-Rock / Folk-Rock

Нові коментарі

Нова тема   Відповісти
Автор Повідомлення
muhomor 
VIP


З нами з: 04.12.11
Востаннє: 29.11.16
Повідомлень: 297

2012-11-25 15:29  
Kozak System - Шабля (2012) [FLAC] | Ethno-Rock / Folk-Rock

Kozak System - Шабля (2012) [FLAC] | Ethno-Rock / Folk-Rock


Стиль: Ethno-Rock, Folk-Rock
Країна, місто: Україна, Київ
Сайти: Офіційний сайт
Видавець: Comp MUSIC
Виконавці:
склад гурту:
Іван Леньо - спів, акордеон, синтезатори
Олександр Дем'яненко - гітара, спів
Володимир Шерстюк - бас, спів
Сергій Соловій - труба, спів
Сергій Борисенко - барабани, перкусія, спів
Олександр Чаркін - тромбон, спів

запрошені музиканти:
Мишко Адамчак - сопілка (1, 2, 3, 4, 12)
Володимир Шолохов - сопілка (5, 6, 7, 8, 10, 12, 13, 16)
Володимир Шотурма - цимбали (5)
Володимир Польовчик - цимбали (6)
Василь Гекер - скрипка (5)
Іван Ткаленко - бандура (16)
Андрій Середа - спів (16)
Марина Богун - бек-вокал (14)
Катя Chilly - спів (6)
Пісні:
    01. Шабля
    02. Гайдамацька
    03. Ми Боги
    04. Партія Снайперів
    05. ҐетАп, СтенАп
    06. А Вже Тому 7 Рік Буде
    07. Сніг
    08. Така Спокуслива
    09. Я Ворота Запираю
    10. Їхав Козак Містом
    11. Бай, Бай, Кохана
    12. Про Андрія
    13. Ворон
    14. Еміґрант Сонґ
    15. Ace Of Spades
    16. Гей, Іване
    17. Брат За Брата
    Audiochecker

    AUDIOCHECKER v2.0 beta (build 457) - by Dester - [email protected]
    ~~~~~~~~~~~~~~~~~~~~~~~~~~~~~~~~~~

    Started at: воскресенье, 25. 11. 2012. - 15:22.26
    17 files found

    01 -===- D:\hurtom.com\Kozak System - «Шабля» (2012) (FLAC)\17 Брат За Брата.flac
    Extracted successfully
    Conclusion: this track is CDDA with probability 100%
    Tempfile successfully deleted.

    02 -===- D:\hurtom.com\Kozak System - «Шабля» (2012) (FLAC)\01 Шабля.flac
    Extracted successfully
    Conclusion: this track is MPEG with probability 98%
    Tempfile successfully deleted.

    03 -===- D:\hurtom.com\Kozak System - «Шабля» (2012) (FLAC)\02 Гайдамацька.flac
    Extracted successfully
    Conclusion: this track is MPEG with probability 98%
    Tempfile successfully deleted.

    04 -===- D:\hurtom.com\Kozak System - «Шабля» (2012) (FLAC)\03 Ми Боги.flac
    Extracted successfully
    Conclusion: this track is CDDA with probability 100%
    Tempfile successfully deleted.

    05 -===- D:\hurtom.com\Kozak System - «Шабля» (2012) (FLAC)\04 Партія Снайперів.flac
    Extracted successfully
    Conclusion: this track is CDDA with probability 100%
    Tempfile successfully deleted.

    06 -===- D:\hurtom.com\Kozak System - «Шабля» (2012) (FLAC)\05 ҐетАп, СтенАп.flac
    Extracted successfully
    Conclusion: this track is CDDA with probability 100%
    Tempfile successfully deleted.

    07 -===- D:\hurtom.com\Kozak System - «Шабля» (2012) (FLAC)\06 А Вже Тому 7 Рік Буде.flac
    Extracted successfully
    Conclusion: this track is MPEG with probability 73%
    Tempfile successfully deleted.

    08 -===- D:\hurtom.com\Kozak System - «Шабля» (2012) (FLAC)\07 Сніг.flac
    Extracted successfully
    Conclusion: this track is CDDA with probability 87%
    Tempfile successfully deleted.

    09 -===- D:\hurtom.com\Kozak System - «Шабля» (2012) (FLAC)\08 Така Спокуслива.flac
    Extracted successfully
    Conclusion: this track is CDDA with probability 100%
    Tempfile successfully deleted.

    10 -===- D:\hurtom.com\Kozak System - «Шабля» (2012) (FLAC)\09 Я Ворота Запираю.flac
    Extracted successfully
    Conclusion: this track is CDDA with probability 100%
    Tempfile successfully deleted.

    11 -===- D:\hurtom.com\Kozak System - «Шабля» (2012) (FLAC)\10 Їхав Козак Містом.flac
    Extracted successfully
    Conclusion: this track is CDDA with probability 100%
    Tempfile successfully deleted.

    12 -===- D:\hurtom.com\Kozak System - «Шабля» (2012) (FLAC)\11 Бай, Бай, Кохана.flac
    Extracted successfully
    Conclusion: this track is CDDA with probability 100%
    Tempfile successfully deleted.

    13 -===- D:\hurtom.com\Kozak System - «Шабля» (2012) (FLAC)\12 Про Андрія.flac
    Extracted successfully
    Conclusion: this track is CDDA with probability 100%
    Tempfile successfully deleted.

    14 -===- D:\hurtom.com\Kozak System - «Шабля» (2012) (FLAC)\13 Ворон.flac
    Extracted successfully
    Conclusion: this track is MPEG with probability 79%
    Tempfile successfully deleted.

    15 -===- D:\hurtom.com\Kozak System - «Шабля» (2012) (FLAC)\14 Еміґрант Сонґ.flac
    Extracted successfully
    Conclusion: this track is MPEG with probability 99%
    Tempfile successfully deleted.

    16 -===- D:\hurtom.com\Kozak System - «Шабля» (2012) (FLAC)\15 Ace Of Spades.flac
    Extracted successfully
    Conclusion: this track is CDDA with probability 100%
    Tempfile successfully deleted.

    17 -===- D:\hurtom.com\Kozak System - «Шабля» (2012) (FLAC)\16 Гей, Іване.flac
    Extracted successfully
    Conclusion: this track is CDDA with probability 86%
    Tempfile successfully deleted.

    Finished at: воскресенье, 25. 11. 2012. - 15:26.51 (operation time: 0:04.25)
    Log

    Exact Audio Copy V1.0 beta 3 from 29. August 2011

    Отчёт EAC об извлечении, выполненном 21. ноября 2012, 22:38

    Kozak System / «Шабля»

    Дисковод: ASUS DRW-2014S1T Adapter: 2 ID: 8

    Режим чтения : Достоверность
    Использование точного потока : Да
    Отключение кэша аудио : Да
    Использование указателей C2 : Нет

    Коррекция смещения при чтении : 0
    Способность читать области Lead-in и Lead-out : Нет
    Заполнение пропущенных сэмплов тишиной : Да
    Удаление блоков с тишиной в начале и конце : Нет
    При вычислениях CRC использовались нулевые сэмплы : Да
    Интерфейс : Встроенный Win32-интерфейс для Win NT/2000
    Обработка зазоров : Добавлено к предыдущему треку

    Выходной формат : Пользовательский кодировщик
    Выбранный битрейт : 128 kBit/s
    Качество : Высокий
    Добавление ID3-тега : Нет
    Утилита сжатия : C:\Program Files\Exact Audio Copy\Flac\flac.exe
    Дополнительные параметры : -V -8 -T "Genre=%genre%" -T "Artist=%artist%" -T "Title=%title%" -T "Album=%albumtitle%" -T "Date=%year%" -T "Tracknumber=%tracknr%" -T "Comment=%comment%" %source%

    TOC извлечённого CD

    Трек | Старт | Длительность | Начальный сектор | Конечный сектор
    ---------------------------------------------------------------------
    1 | 0:00.00 | 3:16.69 | 0 | 14768
    2 | 3:16.69 | 3:36.54 | 14769 | 31022
    3 | 6:53.48 | 4:02.26 | 31023 | 49198
    4 | 10:55.74 | 3:33.43 | 49199 | 65216
    5 | 14:29.42 | 3:21.62 | 65217 | 80353
    6 | 17:51.29 | 7:12.30 | 80354 | 112783
    7 | 25:03.59 | 4:46.01 | 112784 | 134234
    8 | 29:49.60 | 3:29.41 | 134235 | 149950
    9 | 33:19.26 | 3:37.67 | 149951 | 166292
    10 | 36:57.18 | 2:57.16 | 166293 | 179583
    11 | 39:54.34 | 2:41.63 | 179584 | 191721
    12 | 42:36.22 | 5:01.47 | 191722 | 214343
    13 | 47:37.69 | 3:26.09 | 214344 | 229802
    14 | 51:04.03 | 4:48.58 | 229803 | 251460
    15 | 55:52.61 | 2:49.55 | 251461 | 264190
    16 | 58:42.41 | 3:15.19 | 264191 | 278834
    17 | 61:57.60 | 3:41.60 | 278835 | 295469

    Трек 1

    Имя файла D:\Documents and Settings\user\Рабочий стол\«»—0–\01 Шабля.wav

    Длина предзазора 0:00:02.00

    Пиковый уровень 99.1 %
    Скорость извлечения 5.0 X
    Качество трека 100.0 %
    CRC теста 141FBAC2
    CRC копии 141FBAC2
    Копирование... OK

    Трек 2

    Имя файла D:\Documents and Settings\user\Рабочий стол\«»—0–\02 Гайдамацька.wav

    Длина предзазора 0:00:02.00

    Пиковый уровень 99.0 %
    Скорость извлечения 5.7 X
    Качество трека 100.0 %
    CRC теста 515ECCD4
    CRC копии 515ECCD4
    Копирование... OK

    Трек 3

    Имя файла D:\Documents and Settings\user\Рабочий стол\«»—0–\03 Ми Боги.wav

    Длина предзазора 0:00:02.00

    Пиковый уровень 99.1 %
    Скорость извлечения 5.5 X
    Качество трека 99.9 %
    CRC теста 24C36EF9
    CRC копии 24C36EF9
    Копирование... OK

    Трек 4

    Имя файла D:\Documents and Settings\user\Рабочий стол\«»—0–\04 Партія Снайперів.wav

    Длина предзазора 0:00:02.00

    Пиковый уровень 99.1 %
    Скорость извлечения 6.6 X
    Качество трека 100.0 %
    CRC теста FF1C8BBD
    CRC копии FF1C8BBD
    Копирование... OK

    Трек 5

    Имя файла D:\Documents and Settings\user\Рабочий стол\«»—0–\05 ҐетАп, СтенАп.wav

    Длина предзазора 0:00:02.00

    Пиковый уровень 99.1 %
    Скорость извлечения 5.9 X
    Качество трека 99.9 %
    CRC теста 27EEE8E9
    CRC копии 27EEE8E9
    Копирование... OK

    Трек 6

    Имя файла D:\Documents and Settings\user\Рабочий стол\«»—0–\06 А Вже Тому 7 Рік Буде.wav

    Длина предзазора 0:00:02.00

    Пиковый уровень 99.1 %
    Скорость извлечения 8.0 X
    Качество трека 100.0 %
    CRC теста 0B179674
    CRC копии 0B179674
    Копирование... OK

    Трек 7

    Имя файла D:\Documents and Settings\user\Рабочий стол\«»—0–\07 Сніг.wav

    Длина предзазора 0:00:02.00

    Пиковый уровень 99.1 %
    Скорость извлечения 8.1 X
    Качество трека 100.0 %
    CRC теста 30CEEC30
    CRC копии 30CEEC30
    Копирование... OK

    Трек 8

    Имя файла D:\Documents and Settings\user\Рабочий стол\«»—0–\08 Така Спокуслива.wav

    Длина предзазора 0:00:02.00

    Пиковый уровень 98.1 %
    Скорость извлечения 8.2 X
    Качество трека 100.0 %
    CRC теста 5EEF3B08
    CRC копии 5EEF3B08
    Копирование... OK

    Трек 9

    Имя файла D:\Documents and Settings\user\Рабочий стол\«»—0–\09 Я Ворота Запираю.wav

    Длина предзазора 0:00:02.00

    Пиковый уровень 99.1 %
    Скорость извлечения 8.5 X
    Качество трека 100.0 %
    CRC теста F7A8F72D
    CRC копии F7A8F72D
    Копирование... OK

    Трек 10

    Имя файла D:\Documents and Settings\user\Рабочий стол\«»—0–\10 Їхав Козак Містом.wav

    Длина предзазора 0:00:02.00

    Пиковый уровень 99.0 %
    Скорость извлечения 8.5 X
    Качество трека 100.0 %
    CRC теста 27DE945E
    CRC копии 27DE945E
    Копирование... OK

    Трек 11

    Имя файла D:\Documents and Settings\user\Рабочий стол\«»—0–\11 Бай, Бай, Кохана.wav

    Длина предзазора 0:00:02.00

    Пиковый уровень 99.0 %
    Скорость извлечения 8.0 X
    Качество трека 100.0 %
    CRC теста C6F43807
    CRC копии C6F43807
    Копирование... OK

    Трек 12

    Имя файла D:\Documents and Settings\user\Рабочий стол\«»—0–\12 Про Андрія.wav

    Длина предзазора 0:00:02.00

    Пиковый уровень 99.0 %
    Скорость извлечения 9.0 X
    Качество трека 100.0 %
    CRC теста 7B9FAE40
    CRC копии 7B9FAE40
    Копирование... OK

    Трек 13

    Имя файла D:\Documents and Settings\user\Рабочий стол\«»—0–\13 Ворон.wav

    Длина предзазора 0:00:02.00

    Пиковый уровень 98.9 %
    Скорость извлечения 9.5 X
    Качество трека 100.0 %
    CRC теста 27E913EA
    CRC копии 27E913EA
    Копирование... OK

    Трек 14

    Имя файла D:\Documents and Settings\user\Рабочий стол\«»—0–\14 Еміґрант Сонґ.wav

    Длина предзазора 0:00:02.00

    Пиковый уровень 99.2 %
    Скорость извлечения 10.2 X
    Качество трека 100.0 %
    CRC теста B964A4FD
    CRC копии B964A4FD
    Копирование... OK

    Трек 15

    Имя файла D:\Documents and Settings\user\Рабочий стол\«»—0–\15 Ace Of Spades.wav

    Длина предзазора 0:00:02.00

    Пиковый уровень 99.0 %
    Скорость извлечения 9.7 X
    Качество трека 100.0 %
    CRC теста 1DC1E4EF
    CRC копии 1DC1E4EF
    Копирование... OK

    Трек 16

    Имя файла D:\Documents and Settings\user\Рабочий стол\«»—0–\16 Гей, Іване.wav

    Длина предзазора 0:00:02.00

    Пиковый уровень 99.3 %
    Скорость извлечения 9.8 X
    Качество трека 100.0 %
    CRC теста 65DE8B36
    CRC копии 65DE8B36
    Копирование... OK

    Трек 17

    Имя файла D:\Documents and Settings\user\Рабочий стол\«»—0–\17 Брат За Брата.wav

    Длина предзазора 0:00:02.00

    Пиковый уровень 99.1 %
    Скорость извлечения 9.1 X
    Качество трека 99.9 %
    CRC теста 9ADCE5FA
    CRC копии 9ADCE5FA
    Копирование... OK

    Ошибок не произошло

    Конец отчёта

    ==== Контрольная сумма отчёта AE8FD3D38BF04B6A934E1188EBB50BD6B146D64CF8B196B00F73271CDF30202A ====

Тривалість: 01:05:30
Мова: українська
Аудіо-кодек: FLAC
Бітрейт: 1049 кб/с
Джерело: ріп із власного CD
Додаткова інформація:
Kozak System — український гурт, що виник у лютому 2012 року з музикантів, які вийшли зі складу гурту Гайдамаки.


Якщо Ви справді бажаєте підтримати українське - після прослуховування, якщо музика вам сподобалась, придбайте ліцензійний диск. Підтримаймо вітчизняних виконавців!


Срібний реліз (на рейтинг впливає 50% завантаженого)
 Трекер:    Зареєстрований   

Завантажити / скачати українську музику



відео для новачків



 Зареєстрований:   2012-11-25 15:29
 Розмір:   492 MB 
 Оцінка музики:   9.6/10 (Голосів: 31)
   
ssTAss 
Модератор музики


З нами з: 05.07.08
Востаннє: 05.12.16
Повідомлень: 10939

2012-11-25 18:29  
muhomor написано:
Коррекция смещения при чтении : 0

тут має бути +6

ДУМА 
Новенький


З нами з: 20.05.11
Востаннє: 05.12.16
Повідомлень: 2

2012-11-26 19:56  
ЯК ТО ГАРНО!!!!!! Моя шана хлопцям за гарну пісню!!!
dez 
Частий відвідувач


З нами з: 14.10.08
Востаннє: 04.12.16
Повідомлень: 29

2012-11-30 08:23  
В "запрошені музиканти" вказано Андрій Середа - спів (16). А вам не здається, що Андрій Середа виконує пісню 12. Про Андрія, а не пісню 16. Гей, Іване ?
muhomor 
VIP


З нами з: 04.12.11
Востаннє: 29.11.16
Повідомлень: 297

2012-12-09 19:13  
Цитата:
dez
В "запрошені музиканти" вказано Андрій Середа - спів (16). А вам не здається, що Андрій Середа виконує пісню 12. Про Андрія, а не пісню 16. Гей, Іване ?


не здається. на диску написано саме так. можете переконатися самостійно, придбавши ліцензійний екземпляр

ssTAss 
Модератор музики


З нами з: 05.07.08
Востаннє: 05.12.16
Повідомлень: 10939

2012-12-09 19:24  
muhomor написано:
на диску написано саме так.

це означає, що помилились при друці поліграфії, бо Середа справді в 12 треку, а не в 16

загалом диск хороший, драйвовий і чомусь поки не можу звикнути до козак систем... гайдамаки і всьо), навіть без Ярмоли

dez 
Частий відвідувач


З нами з: 14.10.08
Востаннє: 04.12.16
Повідомлень: 29

2012-12-09 21:06  
Так, доволі непоганий альбом, як для початку нового колективу, а от з записом звуку нелади, тобто нема чистоти звучання та і в згаданому треку 12. крім Середи більш нікого майже не чутно ((
Дякую за реліз та не ображайтесь за вказану помилку ))

Ваш часовий пояс: GMT + 2 Години

Нова тема   Відповісти