Завантажити та скачати торренти українською


Клони / Surrogates (2009) 1080p Ukr/Eng | Sub Ukr/Eng

Нові коментарі

Нова тема   Відповісти
Автор Повідомлення
pyatachok 
Координатор літератури


З нами з: 30.01.10
Востаннє: 07.12.16
Повідомлень: 1337

2012-11-25 14:43  
Клони / Surrogates (2009) 1080p Ukr/Eng | Sub Ukr/Eng

Клони / Surrogates (2009) 1080p Ukr/Eng | Sub Ukr/Eng


Жанр: фантастика, бойовик, трилер
Країна: США



Кіностудія / кінокомпанія: Mandeville Films, Road Rebel, Touchstone Pictures, Wintergreen Productions
Режисер: Джонатан Мостоу
Актори: Брюс Вілліс, Рада Мітчел, Розамунд Пайк, Борис Коджо, Джеймс Джинті, Джеймс Кромвел, Вінг Реймс, Джек Ноузворті, Девін Ретрей, Майкл Кудліц та інші.

Сюжет:
Дія відбувається в майбутньому, у 2057 році, — коли люди практично перестануть спілкуватися між собою, повністю поклавши цю функцію на плечі роботів-замінників. Вони сильніші, молодші, привабливіші за своїх власників, і навіть можуть бути іншої статі. Але з`являється терорист, який починає знищувати ідеальних андроїдів. Поліцейський Том Грір прагне дізнатись, які причини штовхають зловмисника на жахливі вчинки, позбавляючи людей їхніх маріонеток, технічно і фізично досконалих.


Тривалість: 01:28:36
Якість: 1080p
Відео:
кодек:
розмір кадру: 1920x800
бітрейт: 13480 кб/с

Аудіо # 1:
мова: українська
переклад: професійний дубльований
кодек: 5.1
бітрейт: 640 кб/с


Фільм дубльовано на студії LeDoyen
Переклад: Федора Сидорука
Режисер дубляжу: Ольга Фокіна
Звуко-режисер: Боб Шевяков
Координатор дубляду: Мирослава Сидорук
Ролі дублювали: Михайло Жонін, Юлія Перенчук, Лілія Ребрик, Назар Задніпровський, Владислав Пупков, Юрій Ребрик, Олександр Бондаренко, Іван Розін та інші.


Аудіо # 2:
мова: англійська
переклад: оригінал
кодек: 5.1
бітрейт: 1536 кб/с

Аудіо # 3:
мова: англійська (коментарі)
переклад: оригінал
кодек: 2.0
бітрейт: 192 кб/с

Джерело озвучення:


Субтитри 1,2,3:
мова: українська (повні, надписи, коментарі)
тип: програмні (м'які)
формат: *.srt

Субтитри 4,5:
мова: англійська (повні, SDH)
тип: програмні (м'які)
формат: *.srt
MediaInfo
General
Unique ID : 198906643612339234368476059696717317897 (0x95A406AEF3B9898A85C1824D4BB74709)
Complete name : D:\Hurtom\Surrogates (2009) [Ukr, Eng][sub Ukr, Eng] BDRip1080p [Hurtom].mkv
Format : Matroska
Format version : Version 2
File size : 9.79 GiB
Duration : 1h 28mn
Overall bit rate : 15.8 Mbps
Movie name : Surrogates (2009) - Release for Hurtom
Encoded date : UTC 2012-11-26 07:25:55
Writing application : mkvmerge v5.7.0 ('The Whirlwind') built on Jul 8 2012 20:08:51
Writing library : libebml v1.2.3 + libmatroska v1.3.0

Video
ID : 1
Format : AVC
Format/Info : Advanced Video Codec
Format profile : [email protected]
Format settings, CABAC : Yes
Format settings, ReFrames : 5 frames
Codec ID : V_MPEG4/ISO/AVC
Bit rate : 13.6 Mbps
Width : 1 920 pixels
Height : 800 pixels
Display aspect ratio : 2.40:1
Frame rate mode : Variable
Original frame rate : 23.976 fps
Color space : YUV
Chroma subsampling : 4:2:0
Bit depth : 8 bits
Scan type : Progressive
Bits/(Pixel*Frame) : 0.370
Title : Release for Hurtom
Writing library : core 80 r1376M 3feaec2
Encoding settings : cabac=1 / ref=5 / deblock=1:-3:-3 / analyse=0x3:0x113 / me=esa / subme=9 / psy=1 / psy_rd=1.4:0.0 / mixed_ref=1 / me_range=24 / chroma_me=1 / trellis=2 / 8x8dct=1 / cqm=0 / deadzone=6,6 / fast_pskip=0 / chroma_qp_offset=-2 / threads=12 / sliced_threads=0 / nr=0 / decimate=0 / mbaff=0 / constrained_intra=0 / bframes=6 / b_pyramid=2 / b_adapt=2 / b_bias=-1 / direct=3 / wpredb=1 / wpredp=2 / keyint=250 / keyint_min=25 / scenecut=40 / rc_lookahead=80 / rc=2pass / mbtree=1 / bitrate=13610 / ratetol=1000000000.0 / qcomp=0.80 / qpmin=10 / qpmax=51 / qpstep=4 / cplxblur=20.0 / qblur=0.5 / ip_ratio=1.10 / aq=1:0.60
Language : English
Default : Yes
Forced : No

Audio #1
ID : 2
Format : AC-3
Format/Info : Audio Coding 3
Mode extension : CM (complete main)
Format settings, Endianness : Big
Codec ID : A_AC3
Duration : 1h 28mn
Bit rate mode : Constant
Bit rate : 640 Kbps
Channel(s) : 6 channels
Channel positions : Front: L C R, Side: L R, LFE
Sampling rate : 48.0 KHz
Bit depth : 16 bits
Compression mode : Lossy
Stream size : 406 MiB (4%)
Title : 5.1 640 Kbps [Дубляж, BluRay CEE]
Language : Ukrainian
Default : No
Forced : No

Audio #2
ID : 3
Format :
Format/Info : Digital Theater Systems
Codec ID : A_DTS
Duration : 1h 28mn
Bit rate mode : Constant
Bit rate : 1 510 Kbps
Channel(s) : 6 channels
Channel positions : Front: L C R, Side: L R, LFE
Sampling rate : 48.0 KHz
Bit depth : 24 bits
Compression mode : Lossy
Stream size : 957 MiB (10%)
Title : 5.1 1536 Kbps [Оригінал]
Language : English
Default : No
Forced : No

Audio #3
ID : 4
Format : AC-3
Format/Info : Audio Coding 3
Mode extension : CM (complete main)
Format settings, Endianness : Big
Codec ID : A_AC3
Duration : 1h 28mn
Bit rate mode : Constant
Bit rate : 192 Kbps
Channel(s) : 2 channels
Channel positions : Front: L R
Sampling rate : 48.0 KHz
Bit depth : 16 bits
Compression mode : Lossy
Stream size : 122 MiB (1%)
Title : 2.0 192 Kbps [Commentary]
Language : English
Default : No
Forced : No

Text #1
ID : 5
Format : UTF-8
Codec ID : S_TEXT/UTF8
Codec ID/Info : UTF-8 Plain Text
Title : Надписи i пр.
Language : Ukrainian
Default : No
Forced : No

Text #2
ID : 6
Format : UTF-8
Codec ID : S_TEXT/UTF8
Codec ID/Info : UTF-8 Plain Text
Language : Ukrainian
Default : No
Forced : No

Text #3
ID : 7
Format : UTF-8
Codec ID : S_TEXT/UTF8
Codec ID/Info : UTF-8 Plain Text
Title : Коментарі
Language : Ukrainian
Default : No
Forced : No

Text #4
ID : 8
Format : UTF-8
Codec ID : S_TEXT/UTF8
Codec ID/Info : UTF-8 Plain Text
Language : English
Default : No
Forced : No

Text #5
ID : 9
Format : UTF-8
Codec ID : S_TEXT/UTF8
Codec ID/Info : UTF-8 Plain Text
Title : SDH
Language : English
Default : No
Forced : No
Скріншоти


Джерело: &
Особиста оцінка: 0 - не дивився


 Трекер:    Зареєстрований   

Завантажити / скачати фільм українською



відео для новачків



 Зареєстрований:   2012-11-26 10:06
 Розмір:   9.79 GB 
 Оцінка фільму:   9.9/10 (Голосів: 8)
   
Інші релізи
   Клони / Surrogates (2009) AVC Ukr/Eng Yarik M  2 / 0   2.04 GB   2014-06-03 11:06 
   Клони / Surrogates (2009) 720p | Sub Ukr Drool  4 / 0   4.19 GB   2012-11-25 13:56 
   Клони / Surrogates (2009) Blu-ray Ukr/Eng/Ita/Tur/Rus | Sub Ukr/Eng/Ita/Tur/Rus/Dut/Lat/Lit/Est Maksfootball  0 / 0   28.22 GB   2010-02-09 20:00 
   Клони / Surrogates (2009) LIONN  1 / 0   1.45 GB   2010-01-30 17:50 
   Клони / Surrogates (2009) Ukr/Eng Бодя  0 / 0   1.47 GB   2009-11-06 21:55 
   Клони / Surrogates (2009) Ukr/Eng Skiff  2 / 0   1.46 GB   2009-11-03 00:11 
bot 
робот


З нами з: 30.09.07
Востаннє: 26.05.05
Повідомлень: 16030

2012-11-25 14:43  
Тему перенесено з Фільми в HD до форуму Анонси релізів від Відео Гуртом


pyatachok

Rimbo 
VIP


З нами з: 30.04.11
Востаннє: 07.12.16
Повідомлень: 306

2012-11-25 15:20  
Коли буде? Wide grin
pyatachok 
Координатор літератури


З нами з: 30.01.10
Востаннє: 07.12.16
Повідомлень: 1337

2012-11-25 15:23  
Rimbo
Завтра зранку.

don pedro 
Попереджень: 1
Попереджень: 1 


З нами з: 29.06.11
Востаннє: 08.12.16
Повідомлень: 8761

2012-11-25 16:32  
Поки що останній гарний фільм Брюса Вілліса.
bot 
робот


З нами з: 30.09.07
Востаннє: 26.05.05
Повідомлень: 16030

2012-11-26 10:06  
Тему перенесено з Анонси релізів від Відео Гуртом до форуму Фільми в HD


pyatachok

Ваш часовий пояс: GMT + 2 Години

Нова тема   Відповісти