Завантажити та скачати торренти українською


Темний Лицар повертається / The Dark Knight Rises [IMAX version] (2012) 1080p Ukr/Eng | Sub Eng

Нові коментарі

Нова тема   Відповісти
Автор Повідомлення
pyatachok 
Координатор літератури


З нами з: 30.01.10
Востаннє: 08.12.16
Повідомлень: 1337

2012-11-21 23:40  
Темний Лицар повертається / The Dark Knight Rises [IMAX version] (2012) 1080p Ukr/Eng | Sub Eng

Темний Лицар повертається / The Dark Knight Rises [IMAX version] (2012) 1080p Ukr/Eng | Sub Eng


Жанр: бойовик, екшн, трилер, драма, кримінальний
Країна: США, Великобританія



Кіностудія / кінокомпанія: DC Entertainment, Legendary Pictures, Syncopy, Warner Bros. Pictures
Режисер: Крістофер Нолан
Актори: Крістіан Бейл, Том Гарді, Енн Хетеуей, Джозеф Гордон-Левітт, Маріон Котійяр, Гарі Олдман, Морган Фріман, Майкл Кейн, Метью Модайн, Бен Мендельсон

Сюжет:
Вісім років тому Бетмен розчинився в ночі, перетворившись із героя в втікача. Прийнявши на себе провину за смерть прокурора Харві Дента, Темний лицар пожертвував всім. Разом з комісаром Гордоном вони вирішили, що так буде краще для всіх. Поки злочинність була розчавлена ​​антикримінальних актом Дента, брехня діяла.Але з появою хитрої злодійки із загадковим минулим все змінюється. Тим не менш, ще небезпечніше стає поява терориста Бейна, чиє обличчя закрите маскою. Він розгортає в Готем жахливу діяльність, змушуючи Брюса Уейна вийти з імпровізованого вигнання. Однак навіть одягнувши свій костюм, Бетмен може програти Бейну.


Тривалість: 02:44:32
Якість: 1080р
Відео:
кодек:
розмір кадру: 1920x1080
бітрейт: 13000 кб/с

Аудіо # 1:
мова: українська
переклад: професійний дубльований
кодек: 5.1
бітрейт: 448 кб/с

Аудіо # 2:
мова: англійська
переклад: оригінал
кодек: 5.1
бітрейт: 1510 кб/с

Аудіо # 3:
мова: англійська - коментарі
переклад: оригінал
кодек: 2.0
бітрейт: 192кб/с

Джерело озвучення:


Субтитри 1,2:
мова: англійська, англійська (SDH)
тип: програмні (м'які)
формат: *.srt
MediaInfo
General
Unique ID : 203605835947198601122512244794863625348 (0x992D0EC0DB7F0027BA380F8C352BA484)
Complete name : D:\video\The Dark Knight Rises (2012) [ukr, eng] 1080p [Hurtom].mkv
Format : Matroska
Format version : Version 2
File size : 17.4 GiB
Duration : 2h 44mn
Overall bit rate : 15.1 Mbps
Movie name : The Dark Knight Rises (2012)
Encoded date : UTC 2012-11-22 16:04:47
Writing application : mkvmerge v5.7.0 ('The Whirlwind') built on Jul 8 2012 20:08:51
Writing library : libebml v1.2.3 + libmatroska v1.3.0

Video
ID : 1
Format : AVC
Format/Info : Advanced Video Codec
Format profile : [email protected]
Format settings, CABAC : Yes
Format settings, ReFrames : 4 frames
Codec ID : V_MPEG4/ISO/AVC
Duration : 2h 44mn
Bit rate : 13.0 Mbps
Width : 1 920 pixels
Height : 1 080 pixels
Display aspect ratio : 16:9
Frame rate mode : Constant
Frame rate : 23.976 fps
Color space : YUV
Chroma subsampling : 4:2:0
Bit depth : 8 bits
Scan type : Progressive
Bits/(Pixel*Frame) : 0.261
Stream size : 14.6 GiB (84%)
Writing library : core 116 r2057 0ba8a9c
Encoding settings : cabac=1 / ref=4 / deblock=1:-3:-3 / analyse=0x3:0x133 / me=umh / subme=10 / psy=1 / psy_rd=1.00:0.00 / mixed_ref=1 / me_range=32 / chroma_me=1 / trellis=2 / 8x8dct=1 / cqm=0 / deadzone=21,11 / fast_pskip=0 / chroma_qp_offset=-2 / threads=14 / sliced_threads=0 / nr=0 / decimate=0 / interlaced=0 / bluray_compat=0 / constrained_intra=0 / bframes=7 / b_pyramid=2 / b_adapt=2 / b_bias=0 / direct=3 / weightb=1 / open_gop=0 / weightp=2 / keyint=250 / keyint_min=23 / scenecut=40 / intra_refresh=0 / rc_lookahead=40 / rc=2pass / mbtree=0 / bitrate=13000 / ratetol=1.0 / qcomp=0.65 / qpmin=0 / qpmax=40 / qpstep=4 / cplxblur=20.0 / qblur=0.5 / vbv_maxrate=50000 / vbv_bufsize=50000 / nal_hrd=none / ip_ratio=1.25 / pb_ratio=1.25 / aq=1:0.67
Language : English
Default : No
Forced : No

Audio #1
ID : 2
Format : AC-3
Format/Info : Audio Coding 3
Mode extension : CM (complete main)
Format settings, Endianness : Big
Codec ID : A_AC3
Duration : 2h 44mn
Bit rate mode : Constant
Bit rate : 448 Kbps
Channel(s) : 6 channels
Channel positions : Front: L C R, Side: L R, LFE
Sampling rate : 48.0 KHz
Bit depth : 16 bits
Compression mode : Lossy
Stream size : 527 MiB (3%)
Title : Ukrainian 5.1 @ 448 kbps - DUB
Language : Ukrainian
Default : No
Forced : No

Audio #2
ID : 3
Format :
Format/Info : Digital Theater Systems
Codec ID : A_DTS
Duration : 2h 44mn
Bit rate mode : Constant
Bit rate : 1 510 Kbps
Channel(s) : 6 channels
Channel positions : Front: L C R, Side: L R, LFE
Sampling rate : 48.0 KHz
Bit depth : 24 bits
Compression mode : Lossy
Delay relative to video : 11ms
Stream size : 1.74 GiB (10%)
Title : English 5.1 @ 1510 kbps
Language : English
Default : No
Forced : No

Audio #3
ID : 4
Format : AC-3
Format/Info : Audio Coding 3
Format profile : Dolby Digital
Mode extension : CM (complete main)
Format settings, Endianness : Big
Codec ID : A_AC3
Duration : 2h 44mn
Bit rate mode : Constant
Bit rate : 192 Kbps
Channel(s) : 2 channels
Channel positions : Front: L R
Sampling rate : 48.0 KHz
Bit depth : 16 bits
Compression mode : Lossy
Stream size : 226 MiB (1%)
Title : English 2.0 @ 192 kbps - Commentary
Language : English
Default : No
Forced : No

Text #1
ID : 5
Format : UTF-8
Codec ID : S_TEXT/UTF8
Codec ID/Info : UTF-8 Plain Text
Title : English SDH
Language : English
Default : No
Forced : No

Text #2
ID : 6
Format : UTF-8
Codec ID : S_TEXT/UTF8
Codec ID/Info : UTF-8 Plain Text
Title : English
Language : English
Default : No
Forced : No

Menu
00:00:00.000 : en:00:00:00.000
00:09:02.834 : en:00:09:02.834
00:19:08.522 : en:00:19:08.522
00:30:15.856 : en:00:30:15.856
00:41:08.800 : en:00:41:08.800
00:51:09.525 : en:00:51:09.525
01:00:29.668 : en:01:00:29.668
01:10:04.033 : en:01:10:04.033
01:20:13.475 : en:01:20:13.475
01:31:00.580 : en:01:31:00.580
01:39:24.292 : en:01:39:24.292
01:48:58.490 : en:01:48:58.490
02:00:21.589 : en:02:00:21.589
02:10:47.673 : en:02:10:47.673
02:19:12.636 : en:02:19:12.636
02:30:14.631 : en:02:30:14.631
02:36:50.526 : en:02:36:50.526
Скріншоти


Джерело:
Особиста оцінка: 9 - давно не бачив настільки якісне кіно


 Трекер:    Зареєстрований   

Завантажити / скачати фільм українською



відео для новачків



 Зареєстрований:   2012-11-22 18:43
 Розмір:   17.41 GB 
 Оцінка фільму:   9.5/10 (Голосів: 28)
   
bot 
робот


З нами з: 30.09.07
Востаннє: 26.05.05
Повідомлень: 16030

2012-11-21 23:40  
Тему перенесено з Фільми в HD до форуму Анонси релізів від Відео Гуртом


pyatachok

leroykendall 
Модератор HD


З нами з: 03.01.11
Востаннє: 20.11.16
Повідомлень: 749

2012-11-22 06:29  
pyatachok написано:
2xEng

Якщо то тільки коментарі то варто прибрати 2х.

Murzik 
Новенький


З нами з: 30.12.10
Востаннє: 07.12.16
Повідомлень: 23

2012-11-22 11:17  
Чекаю!!!!
Don Corleone 
Новенький


З нами з: 07.11.12
Востаннє: 25.02.13
Повідомлень: 3

2012-11-22 12:31  
Добре.
bot 
робот


З нами з: 30.09.07
Востаннє: 26.05.05
Повідомлень: 16030

2012-11-22 18:43  
Тему перенесено з Анонси релізів від Відео Гуртом до форуму Фільми в HD


pyatachok

pyatachok 
Координатор літератури


З нами з: 30.01.10
Востаннє: 08.12.16
Повідомлень: 1337

2012-11-22 18:45  
Швидкість віддачі ~ 360 кб/с, роздаватиму цілу ніч.
Gybalj 
Свій


З нами з: 14.05.09
Востаннє: 08.12.16
Повідомлень: 51

2012-11-23 15:10  
Хлопці станьте на роздчу бо хочу сьогодні вечером з знайомими подивитись а швидкість до 200кб,дякую!
olyx 
Відео Гуртом - підтримка та поширення
Відео Гуртом - підтримка та поширення


З нами з: 25.01.10
Востаннє: 05.10.16
Повідомлень: 231

2012-11-23 16:39  
ремукс намічається?
pyatachok 
Координатор літератури


З нами з: 30.01.10
Востаннє: 08.12.16
Повідомлень: 1337

2012-11-23 16:40  
Gybalj написано:
Хлопці станьте на роздчу бо хочу сьогодні вечером з знайомими подивитись а швидкість до 200 кб,дякую!

Виходить так довго, бо дехто з завантажуючих не хоче роздавати.... зараз третина моєї віддачі йде до SubNiggurath, а він віддав лише 93 магайти, і таких напевно багато, бо я вже роздав 20,8ГБ

Цитата:
ремукс намічається?

вже є... http://toloka.to/t41623

Murzik 
Новенький


З нами з: 30.12.10
Востаннє: 07.12.16
Повідомлень: 23

2012-11-23 19:05  
Gybalj написано:
67 MB

А як його більше роздавати ніж качати??? Мені впринципі пофіг, аби на вихідних подивитись.

kmr 
Поважний учасник


З нами з: 18.04.10
Востаннє: 06.12.16
Повідомлень: 150

2012-11-24 14:48  
Велике спасибі за гарний ріп кіна =)
Anubys 
VIP


З нами з: 09.11.09
Востаннє: 07.12.16
Повідомлень: 278

2012-11-24 23:59  
Фільм однозначно варто переглянути
ratbol 
Модератор HD


З нами з: 03.02.09
Востаннє: 07.12.16
Повідомлень: 1088

2012-11-27 11:41  
Вчора переглянув три частини зараз, раніше тільки другу бачив, нічо так логія, хоч і не любитель фантастики дивився не відриваючись, щось є у фільмах Нолана, що затягує. Щодо останньої частини, то був вражений кількістю знаменитостей, гонорари мали бути пристойні. Ще спочатку ніяк не міг знайти Тома Гарді, аж потім допетрав який у нього персонаж. Хетевей класно зіграла. Кінець непередбчуваний.
manreg 
Новенький


З нами з: 04.05.12
Востаннє: 05.12.16
Повідомлень: 24

2015-12-31 00:27  
Дякую, особливо за !
Ваш часовий пояс: GMT + 2 Години

Нова тема   Відповісти