Завантажити та скачати торренти українською


Світанок мерців / Dawn of the Dead (2004) 720p Eng | sub Ukr

Нові коментарі

Нова тема   Відповісти
Останній раз роздавалося Sashka_888 (2016-12-04)
Автор Повідомлення
Andriy063 
Відео Гуртом - підтримка та поширення
Відео Гуртом - підтримка та поширення


З нами з: 26.09.10
Востаннє: 10.12.16
Повідомлень: 371

2012-11-21 02:12  
Світанок мерців / Dawn of the Dead (2004) 720p Eng | sub Ukr

Світанок мерців / Dawn of the Dead (2004) 720p Eng | sub Ukr


Жанр: жахи, трилер
Країна: США , Канада , Японія , Франція



Кіностудія / кінокомпанія: Universal
Режисер: Зак Снайдер
Актори: Сара Поллі, Вінг Реймз, Джейк Уебер, Міхи Файфер, Тай Бурелла, Майкл Келлі, Кевін Зегерс, Майкл Беррі, Лінді Бут, Джейн Іствуд

Сюжет:
В той час, як Америка здригається від раптового нашестя мільйонів мертвяків, маленька група уцілілих людей намагається знайти притулок і захист у величезній будівлі торгового центру. Але вони недовго зможуть протистояти нападу зомбі. Розуміючи, що час закінчується, герої роблять спробу втечі на безпечний острів, але чи зможуть вони добратися туди живими?


Тривалість: 01:49:12
Якість:
Відео:
кодек:
розмір кадру: 1280 х 544
бітрейт: 3785 кб/с

Аудіо:
мова: англійська
переклад: оригінал
кодек: 5.1
бітрейт: 448 кб/с

Субтитри:
мова: українська
тип: програмні (м'які)
формат: *.srt
переклад з російської: Andriy063

Скріншоти

Світанок мерців / Dawn of the Dead (2004) 720p Eng | sub Ukr
Світанок мерців / Dawn of the Dead (2004) 720p Eng | sub Ukr
Світанок мерців / Dawn of the Dead (2004) 720p Eng | sub Ukr






MediaInfo
General
Unique ID : 177656513403323594288154774433862282667 (0x85A7665FB54461D0AF22138F896C6DAB)
Complete name : D:\Фільми\Світанок мерців\Dawn of the Dead (2004) Ukr Sub.mkv
Format : Matroska
Format version : Version 2
File size : 3.29 GiB
Duration : 1h 49mn
Overall bit rate : 4 319 Kbps
Movie name : Dawn of the Dead (2004)
Encoded date : UTC 2012-11-20 23:45:29
Writing application : mkvmerge v5.8.0 ('No Sleep / Pillow') built on Sep 2 2012 15:37:04
Writing library : libebml v1.2.3 + libmatroska v1.3.0
Attachment : Yes

Video
ID : 1
Format : AVC
Format/Info : Advanced Video Codec
Format profile : [email protected]
Format settings, CABAC : Yes
Format settings, ReFrames : 11 frames
Codec ID : V_MPEG4/ISO/AVC
Duration : 1h 49mn
Bit rate : 3 785 Kbps
Width : 1 280 pixels
Height : 544 pixels
Display aspect ratio : 2.35:1
Frame rate mode : Constant
Frame rate : 23.976 fps
Color space : YUV
Chroma subsampling : 4:2:0
Bit depth : 8 bits
Scan type : Progressive
Bits/(Pixel*Frame) : 0.227
Stream size : 2.89 GiB (88%)
Writing library : core 120 r2146+4M 81c5179
Encoding settings : cabac=1 / ref=11 / deblock=1:-2:-1 / analyse=0x3:0x133 / me=umh / subme=11 / psy=1 / psy_rd=1.05:0.03 / mixed_ref=1 / me_range=32 / chroma_me=1 / trellis=2 / 8x8dct=1 / cqm=0 / deadzone=21,11 / fast_pskip=0 / chroma_qp_offset=-3 / threads=6 / sliced_threads=0 / nr=0 / decimate=1 / interlaced=0 / bluray_compat=0 / constrained_intra=0 / bframes=11 / b_pyramid=2 / b_adapt=2 / b_bias=0 / direct=1 / weightb=1 / open_gop=0 / weightp=2 / keyint=250 / keyint_min=23 / scenecut=40 / intra_refresh=0 / rc=crf / mbtree=0 / crf=20.9 / qcomp=0.65 / qpmin=0 / qpmax=69 / qpstep=4 / ip_ratio=1.40 / pb_ratio=1.20 / aq=4:0.85
Language : English
Default : Yes
Forced : No
Matrix coefficients : BT.709

Audio
ID : 2
Format : AC-3
Format/Info : Audio Coding 3
Mode extension : CM (complete main)
Format settings, Endianness : Big
Codec ID : A_AC3
Duration : 1h 49mn
Bit rate mode : Constant
Bit rate : 448 Kbps
Channel(s) : 6 channels
Channel positions : Front: L C R, Side: L R, LFE
Sampling rate : 48.0 KHz
Bit depth : 16 bits
Compression mode : Lossy
Stream size : 350 MiB (10%)
Title : Original
Language : English
Default : No
Forced : No

Text
ID : 3
Format : UTF-8
Codec ID : S_TEXT/UTF8
Codec ID/Info : UTF-8 Plain Text
Title : Українська
Language : Ukrainian
Default : Yes
Forced : Yes


Субтитри окремо:
Dawn of the Dead (2004) Ukrainian.srt

Джерело:
Особиста оцінка: 0 - не дивився


Срібний реліз (на рейтинг впливає 50% завантаженого)
 Трекер:    Зареєстрований   

Завантажити / скачати фільм українською



відео для новачків



 Зареєстрований:   2012-11-21 02:12
 Розмір:   3.29 GB 
 Оцінка фільму:   8.8/10 (Голосів: 17)
   
kino. 
Модератор відео


З нами з: 27.06.10
Востаннє: 10.12.16
Повідомлень: 2900

2012-11-21 06:15  
Додай хочаб один скріншот з субтитрами
kelotich94 
Відео Гуртом - підтримка та поширення
Відео Гуртом - підтримка та поширення


З нами з: 02.03.11
Востаннє: 29.07.16
Повідомлень: 45

2012-11-21 09:56  
Встаньте на роздачу, буду підтримувати =)
patriot2305 
Почесний гуртомівець


З нами з: 23.04.11
Востаннє: 11.12.16
Повідомлень: 4145

2012-11-21 10:35  
Гарно дякую! Вже дуже давно хочу подивитися першу роботу Зака Снайдера, і тепер я можу це зробити

Додано через 1 хвилину 1 секунду:

А хіба золота тут немає бути?

kino. 
Модератор відео


З нами з: 27.06.10
Востаннє: 10.12.16
Повідомлень: 2900

2012-11-21 10:48  
золото даєця за субтитри які перекладені власноруч з мови оригіналу
patriot2305 
Почесний гуртомівець


З нами з: 23.04.11
Востаннє: 11.12.16
Повідомлень: 4145

2012-11-21 10:55  
kino. написано:
золото даєця за субтитри які перекладені власноруч з мови оригіналу

А хіба це не такі, я в інтернеті українських субтитрів не знаходив

kino. 
Модератор відео


З нами з: 27.06.10
Востаннє: 10.12.16
Повідомлень: 2900

2012-11-21 10:59  
автор які субтитри невказав + реліз ще не перевірено
Sjanyk San 
Свій


З нами з: 06.01.11
Востаннє: 14.10.16
Повідомлень: 103

2012-11-21 17:12  
http://toloka.to/t37507
http://toloka.to/t41134
дяки, це професійна робота для задоволення. питання знято.
...

-
п.с. хіба цей реліз не ХД, не 720? чи я чогось не розумію?

Andriy063 
Відео Гуртом - підтримка та поширення
Відео Гуртом - підтримка та поширення


З нами з: 26.09.10
Востаннє: 10.12.16
Повідомлень: 371

2012-11-21 17:31  
Sjanyk San
720p mini

kino. 
Модератор відео


З нами з: 27.06.10
Востаннє: 10.12.16
Повідомлень: 2900

2012-11-21 17:34  
скріншоти з субтитрами мають розширення 800 х 340
Andriy063 написано:
розмір кадру: 1280 х 544

bot 
робот


З нами з: 30.09.07
Востаннє: 26.05.05
Повідомлень: 16051

2012-11-21 17:37  
Тему перенесено з Фільми до форуму Фільми в HD


TheMarlboro

The_Marlboro 
Відео Гуртом - субтитрування
Відео Гуртом - субтитрування


З нами з: 23.05.10
Востаннє: 10.12.16
Повідомлень: 2854

2012-11-21 17:39  
Andriy063 написано:
AVC 720p-mini
просто 720p-mini
DеLight 
Відео Гуртом - фільмокрай
Відео Гуртом - фільмокрай


З нами з: 24.08.11
Востаннє: 17.11.16
Повідомлень: 663

2012-11-21 18:50  
Andriy063 написано:
бітрейт: 3785 кб/с

Та не міні це, з таким бітрейтом. Міні це 2000 кб/с, 2000 з лишком, але не з бітрейтом 3,8 Мб/с!

Andriy063 
Відео Гуртом - підтримка та поширення
Відео Гуртом - підтримка та поширення


З нами з: 26.09.10
Востаннє: 10.12.16
Повідомлень: 371

2012-11-22 01:46  
kino.
kino. написано:
скріншоти з субтитрами мають розширення 800 х 340

так зберіг zoom player. MPC зберігає у повному розмірі, але без сабів поверх.

kino. 
Модератор відео


З нами з: 27.06.10
Востаннє: 10.12.16
Повідомлень: 2900

2012-11-22 17:05  
Andriy063 написано:
так зберіг zoom player. MPC зберігає у повному розмірі, але без сабів поверх.

то роби знімки іншим програвачем наприклад VLC Media Player.
Зробив сам скріншоти.

Andriy063 
Відео Гуртом - підтримка та поширення
Відео Гуртом - підтримка та поширення


З нами з: 26.09.10
Востаннє: 10.12.16
Повідомлень: 371

2012-11-22 18:24  
kino.
дякую)

patriot2305 
Почесний гуртомівець


З нами з: 23.04.11
Востаннє: 11.12.16
Повідомлень: 4145

2012-11-22 20:20  
kino. написано:
золото даєця за субтитри які перекладені власноруч з мови оригіналу

Тобто за цей реліз золота не буде, тому що тут переклад з москальської?

patriot2305 
Почесний гуртомівець


З нами з: 23.04.11
Востаннє: 11.12.16
Повідомлень: 4145

2013-01-03 09:14  
Щось цей фільм не завантажується, дайте будь ласка субтитри окремо
ФілД 
Новенький


З нами з: 14.04.12
Востаннє: 11.04.14
Повідомлень: 18

2013-01-07 12:11  
роздайте, будь ласка!)
Milvus 
Свій


З нами з: 01.02.12
Востаннє: 15.06.15
Повідомлень: 86

2013-02-16 20:39  
Andriy063 написано:
Альтернативний постер

Може оригінальний?

JUVA 
Новенький


З нами з: 11.08.11
Востаннє: 06.09.16
Повідомлень: 21

2013-07-25 09:48  
нікого нема...
747 
Свій


З нами з: 21.05.10
Востаннє: 09.12.16
Повідомлень: 120

2014-05-25 09:31  
Народ, поверніться на роздачу!!!
Andriy063 
Відео Гуртом - підтримка та поширення
Відео Гуртом - підтримка та поширення


З нами з: 26.09.10
Востаннє: 10.12.16
Повідомлень: 371

2014-09-14 18:15  
Ось самі субтитри, так як роздачу уже ніхто не підтримує, в тому числі і я.

Dawn of the Dead (2004) Ukrainian.srt

1272 
Новенький


З нами з: 25.07.14
Востаннє: 09.12.16
Повідомлень: 8

2014-10-02 19:21  
kino.
допоможіть мені я гне можу скачати фільм

Ваш часовий пояс: GMT + 2 Години

Нова тема   Відповісти