Завантажити та скачати торренти українською


Примарний гонщик: Дух помсти / Примарний вершник: Дух помсти / Ghost Rider: Spirit of Vengeance (2011) 720p Ukr/Eng | Sub Eng

Нові коментарі

Нова тема   Відповісти
Останній раз роздавалося zmiypvv (2016-12-06)
Автор Повідомлення
Zeus62 
Відео Гуртом - команда HD
Відео Гуртом - команда HD


З нами з: 29.12.08
Востаннє: 16.11.16
Повідомлень: 330

2012-11-20 03:56  
Примарний гонщик: Дух помсти / Примарний вершник: Дух помсти / Ghost Rider: Spirit of Vengeance (2011) 720p Ukr/Eng | Sub Eng

Примарний гонщик: Дух помсти / Примарний вершник: Дух помсти / Ghost Rider: Spirit of Vengeance (2011) 720p Ukr/Eng | Sub Eng


Жанр: фентезі, бойовик, трилер
Країна: США



Режисер: Марк Невелдайн, Брайан Тейлор
Актори: Ніколас Кейдж, Віоланте Плачідо, Крістофер Ламбер, Кірен Хайдз, Джонні Вітуорт, Ідріс Ельба, Фергус Ріордан, Спенсер Уідлінг та ін.

Сюжет:
Дія розгортається на задвірках Східної Європи, де головний герой Джонні Блейз безуспішно намагається впоратися зі своїм прокляттям. Його приймає на роботу якась секта, яка намагається роздобути диявола в той момент, коли він намагається вселитися в тіло його смертного сина у день народження хлопчика.


Тривалість: 01:35:31
Якість:
Відео:
кодек:
розмір кадру: 1280 х 536
бітрейт: 5914 кб/с

Аудіо # 1:
мова: українська
переклад: багатоголосий закадровий /Так Треба Продакшн/
кодек: 5.1
бітрейт: 384 кб/с

Аудіо # 2:
мова: англійська
переклад: оригінал
кодек: 5.1
бітрейт: 384 кб/с

Субтитри # 1:
мова: англійська [Forced]
тип: програмні (м'які)
формат: *.srt

Субтитри # 2:
мова: англійська [Full]
тип: програмні (м'які)
формат: *.srt

Субтитри # 3:
мова: англійська [SDH]
тип: програмні (м'які)
формат: *.srt
MediaInfo:
File size : 4.46 GiB
Duration : 1h 35mn
Overall bit rate : 6 682 Kbps
Movie name : Ghost Rider: Spirit of Vengeance (2011) - HQ-ViDEO
Encoded date : UTC 2012-11-20 03:45:53
Writing application : mkvmerge v5.8.0 ('No Sleep / Pillow') built on Sep 3 2012 05:05:18
Writing library : libebml v1.2.2 + libmatroska v1.3.0

Video
ID : 1
Format : AVC
Format/Info : Advanced Video Codec
Format profile : [email protected]
Format settings, CABAC : Yes
Format settings, ReFrames : 9 frames
Codec ID : V_MPEG4/ISO/AVC
Duration : 1h 35mn
Bit rate : 5 914 Kbps
Width : 1 280 pixels
Height : 536 pixels
Display aspect ratio : 16:9
Frame rate mode : Constant
Frame rate : 23.976 fps
Color space : YUV
Chroma subsampling : 4:2:0
Bit depth : 8 bits
Scan type : Progressive
Bits/(Pixel*Frame) : 0.360
Stream size : 3.86 GiB (87%)
Title : For Hurtom by Zeus62
Writing library : core 112
Encoding settings : cabac=1 / ref=9 / deblock=1:-3:-3 / analyse=0x3:0x113 / me=umh / subme=10 / psy=1 / psy_rd=1,00:0,00 / mixed_ref=1 / me_range=64 / chroma_me=1 / trellis=2 / 8x8dct=1 / cqm=0 / deadzone=21,11 / fast_pskip=1 / chroma_qp_offset=-2 / threads=9 / sliced_threads=0 / nr=0 / decimate=1 / interlaced=0 / constrained_intra=0 / bframes=9 / b_pyramid=2 / b_adapt=2 / b_bias=0 / direct=1 / weightb=1 / open_gop=0 / weightp=2 / keyint=240 / keyint_min=23 / scenecut=40 / intra_refresh=0 / rc_lookahead=50 / rc=2pass / mbtree=1 / bitrate=5914 / ratetol=1,0 / qcomp=0,60 / qpmin=3 / qpmax=51 / qpstep=4 / cplxblur=20,0 / qblur=0,5 / ip_ratio=1,40 / aq=1:1,00
Language : English
Default : Yes
Forced : No
Color primaries : BT.709
Transfer characteristics : BT.709
Matrix coefficients : BT.709

Audio #1
ID : 2
Format : AC-3
Format/Info : Audio Coding 3
Mode extension : CM (complete main)
Format settings, Endianness : Big
Codec ID : A_AC3
Duration : 1h 35mn
Bit rate mode : Constant
Bit rate : 384 Kbps
Channel(s) : 6 channels
Channel positions : Front: L C R, Side: L R, LFE
Sampling rate : 48.0 KHz
Bit depth : 16 bits
Compression mode : Lossy
Stream size : 262 MiB (6%)
Title : ICTV
Language : Ukrainian
Default : Yes
Forced : No

Audio #2
ID : 3
Format : AC-3
Format/Info : Audio Coding 3
Mode extension : CM (complete main)
Format settings, Endianness : Big
Codec ID : A_AC3
Duration : 1h 35mn
Bit rate mode : Constant
Bit rate : 384 Kbps
Channel(s) : 6 channels
Channel positions : Front: L C R, Side: L R, LFE
Sampling rate : 48.0 KHz
Bit depth : 16 bits
Compression mode : Lossy
Stream size : 262 MiB (6%)
Title : Original
Language : English
Default : No
Forced : No

Text #1
ID : 4
Format : UTF-8
Codec ID : S_TEXT/UTF8
Codec ID/Info : UTF-8 Plain Text
Title : Forced
Language : English
Default : No
Forced : No

Text #2
ID : 5
Format : UTF-8
Codec ID : S_TEXT/UTF8
Codec ID/Info : UTF-8 Plain Text
Title : Full
Language : English
Default : No
Forced : No

Text #3
ID : 6
Format : UTF-8
Codec ID : S_TEXT/UTF8
Codec ID/Info : UTF-8 Plain Text
Title : SDH
Language : English
Default : No
Forced : No

Menu
00:00:00.000 : en:Chapter 1
00:06:34.060 : en:Chapter 2
00:11:54.213 : en:Chapter 3
00:15:15.331 : en:Chapter 4
00:19:09.273 : en:Chapter 5
00:25:47.588 : en:Chapter 6
00:28:22.618 : en:Chapter 7
00:35:01.516 : en:Chapter 8
00:43:24.018 : en:Chapter 9
00:51:51.066 : en:Chapter 10
01:00:00.305 : en:Chapter 11
01:03:59.335 : en:Chapter 12
01:11:04.760 : en:Chapter 13
01:14:01.103 : en:Chapter 14
01:20:02.131 : en:Chapter 15
01:25:29.207 : en:Chapter 16
log:
[info]: frame I:1097 Avg QP:10,57 size:134368 PSNR Mean Y:53,95 U:56,44 V:56,58 Avg:54,52 Global:53,84
[info]: frame P:36918 Avg QP:14,08 size: 54103 PSNR Mean Y:50,83 U:53,71 V:53,82 Avg:51,42 Global:50,64
[info]: frame B:99410 Avg QP:16,29 size: 21032 PSNR Mean Y:49,30 U:53,24 V:53,50 Avg:50,03 Global:49,19
[info]: consecutive B-frames: 4,2% 5,3% 14,5% 27,3% 20,4% 21,9% 3,2% 1,2% 1,2% 0,7%
[info]: mb I I16..4: 36,2% 35,0% 28,8%
[info]: mb P I16..4: 2,8% 15,8% 2,9% P16..4: 17,1% 17,0% 11,5% 0,0% 0,0% skip:32,9%
[info]: mb B I16..4: 0,3% 3,2% 0,6% B16..8: 23,1% 13,1% 5,1% direct: 7,0% skip:47,6% L0:40,0% L1:34,7% BI:25,4%
[info]: 8x8 transform intra:72,0% inter:47,6%
[info]: coded y,uvDC,uvAC intra: 84,5% 85,9% 79,0% inter: 28,8% 25,5% 15,5%
[info]: i16 v,h,dc,p: 66% 16% 5% 14%
[info]: i8 v,h,dc,ddl,ddr,vr,hd,vl,hu: 8% 15% 12% 8% 11% 9% 13% 9% 15%
[info]: i4 v,h,dc,ddl,ddr,vr,hd,vl,hu: 6% 16% 9% 7% 13% 9% 15% 9% 15%
[info]: i8c dc,h,v,p: 55% 21% 11% 14%
[info]: Weighted P-Frames: Y:3,5% UV:2,0%
[info]: ref P L0: 50,4% 14,1% 13,9% 6,1% 4,7% 3,5% 2,9% 2,1% 1,9% 0,4% 0,0%
[info]: ref B L0: 75,0% 11,1% 5,3% 2,8% 2,5% 1,7% 1,2% 0,4%
[info]: ref B L1: 92,4% 7,6%
[info]: SSIM Mean Y:0,9939688 (22,196db)
[info]: PSNR Mean Y:49,746 U:53,394 V:53,608 Avg:50,437 Global:49,562 kb/s:5911,73
Скріншоти:
Original vs Encode





Джерело: +
Поядка пану Vasua95 за надану українську стерео-доріжку та пану Vladdrako17 - за постер.
Звукову доріжку в 5.1 перероблено мною.
Особиста оцінка: 8 - мені сподобалося


 Трекер:    Зареєстрований   

Завантажити / скачати фільм українською



відео для новачків



 Зареєстрований:   2012-11-20 03:56
 Розмір:   4.46 GB 
 Оцінка фільму:   6.7/10 (Голосів: 15)
   
Chel218 
Новенький


З нами з: 30.11.11
Востаннє: 07.12.16
Повідомлень: 8

2012-11-20 11:47  
Фігня повна
BACb0K 
Новенький


З нами з: 23.10.11
Востаннє: 21.09.16
Повідомлень: 1

2012-11-20 11:53  
перша частина краща була
respect14 
VIP


З нами з: 26.01.11
Востаннє: 07.12.16
Повідомлень: 379

2012-11-20 18:34  
Добре хоч ICTV в рус озвучці не транслювало його... а то в кінотеатрах по ходу він йшов лише в рус
ratbol 
Модератор HD


З нами з: 03.02.09
Востаннє: 07.12.16
Повідомлень: 1088

2012-11-20 18:59  
В озвучці було гонщик, а не вершник.
Zeus62 
Відео Гуртом - команда HD
Відео Гуртом - команда HD


З нами з: 29.12.08
Востаннє: 16.11.16
Повідомлень: 330

2012-11-21 02:26  
Цитата:
а то в кінотеатрах по ходу він йшов лише в рус

Так. Я ходив на цей фільм до кінотеатру, то він йшов російською.

Цитата:
В озвучці було гонщик, а не вершник.

Я написав правильний переклад, а не згідно перекладу від ICTV

Sensetivity 
VIP


З нами з: 03.05.11
Востаннє: 03.01.13
Повідомлень: 2019

2012-11-21 12:55  
Zeus62
Треба було центральний канал трішки голоснішим зробити.
А так, фільм не сподобався. Сцени, де швидко пропускали кадри просто бісили.

ratbol 
Модератор HD


З нами з: 03.02.09
Востаннє: 07.12.16
Повідомлень: 1088

2012-11-21 15:43  
Zeus62
6c6c6 написано:
Обов'язково вказувати назву фільму, яку йому дала студія озвучення. Якщо назва має декілька варіантів або релізер хоче дати свій, вони пишуться через знак "/" в наступній послідовності: Варіант української назви / Інший варіант української назви / Оригінальна назва / Інші варіанти в інших мовах. Послідовність українських назв довільна.

Zeus62 
Відео Гуртом - команда HD
Відео Гуртом - команда HD


З нами з: 29.12.08
Востаннє: 16.11.16
Повідомлень: 330

2012-11-21 16:11  
Цитата:
Обов'язково вказувати назву фільму, яку йому дала студія озвучення. Якщо назва має декілька варіантів або релізер хоче дати свій, вони пишуться через знак "/" в наступній послідовності: Варіант української назви / Інший варіант української назви / Оригінальна назва / Інші варіанти в інших мовах. Послідовність українських назв довільна.

Не знав. Якось не звертав на це увагу. Добре, в назві допишу згідно правил.

Додано через 1 хвилину 11 секунд:

Цитата:
Треба було центральний канал трішки голоснішим зробити.

Я його зробив голосніше. Він був ще тихішим. Просто якість не дуже запису. Шумів багато.

hellforces 
VIP


З нами з: 25.06.08
Востаннє: 11.11.16
Повідомлень: 1556

2012-11-22 18:23  
7\10
ratbol 
Модератор HD


З нами з: 03.02.09
Востаннє: 07.12.16
Повідомлень: 1088

2012-11-22 22:59  
Що з скрінами?
Zeus62 
Відео Гуртом - команда HD
Відео Гуртом - команда HD


З нами з: 29.12.08
Востаннє: 16.11.16
Повідомлень: 330

2012-11-24 02:42  
Цитата:
Що з скрінами?

Та ніяк не доберусь до компа, щоб їх зробити.

Zeus62 
Відео Гуртом - команда HD
Відео Гуртом - команда HD


З нами з: 29.12.08
Востаннє: 16.11.16
Повідомлень: 330

2012-11-27 12:56  
Цитата:
Що з скрінами?

Додано

Anubys 
VIP


З нами з: 09.11.09
Востаннє: 07.12.16
Повідомлень: 278

2013-08-25 16:09  
Фільм повна лажа. Фанати першої частини будуть розчаровані 100%.
pacalguf 
Новенький


З нами з: 13.05.14
Востаннє: 21.11.16
Повідомлень: 1

2015-01-30 10:36  
торрент не працює
Ваш часовий пояс: GMT + 2 Години

Нова тема   Відповісти