Завантажити та скачати торренти українською


Кохання з перешкодами / Un bonheur n'arrive jamais seul (2012) 720p

Нові коментарі

Нова тема   Відповісти
Автор Повідомлення
pyatachok 
Координатор літератури


З нами з: 30.01.10
Востаннє: 07.12.16
Повідомлень: 1337

2012-11-13 21:24  
Кохання з перешкодами / Un bonheur n'arrive jamais seul (2012) 720p

Кохання з перешкодами / Un bonheur n'arrive jamais seul (2012) 720p


Жанр: комедія, мелодрама
Країна: Франція



Кіностудія / кінокомпанія: Captain Movies, Eskwad, SPAD Films
Режисер: Джеймс Хат
Актори: Софі Марсо, Гад Ельмалех, Моріс Бартелемі, Франсуа Берленд, Майкл Абітебул

Сюжет:
Це історія про двох людей з радикально різними поглядами на відносини між чоловіками та жінками. Він, Саша Келлер, живе музикою, нічними клубами, боїться появи дітей у його житті та не визнає дівчат старше 29 років. Проте з тими, хто молодше - залюбки проводить весь свій нічний (та й денний) час.
Вона, Шарлотта, мати трьох дітлахів, що встигла двічі побути заміжньою (до того ж, один з її чоловіків - клієнт боса Саші), розчарувалася в чоловічому населенні та переконана, що втретє на ті самі граблі не наступить.
Супроти здорового глузду, ці двоє зустрічаються. Хто зна, що з цього вийде?..


Тривалість: 01:49:19
Якість: 720p
Відео:
кодек:
розмір кадру: 1280 х 720
бітрейт: 6 495 кб/с

Аудіо:
мова: українська
переклад: багатоголосий закадровий
кодек: 5.1
бітрейт: 448 кб/с
MediaInfo
General
Unique ID : 241437436594116004107179482956415833660 (0xB5A328AC92F1A7F3BD757D10F9B3163C)
Complete name : D:\Hurtom\Un bonheur n'arrive jamais seul (2012) 720p [ukr][Hurtom].mkv
Format : Matroska
Format version : Version 2
File size : 5.41 GiB
Duration : 1h 49mn
Overall bit rate : 7 084 Kbps
Movie name : Un bonheur n'arrive jamais seul (2012)
Encoded date : UTC 2012-11-13 18:49:40
Writing application : mkvmerge v5.7.0 ('The Whirlwind') built on Jul 8 2012 20:08:51
Writing library : libebml v1.2.3 + libmatroska v1.3.0

Video
ID : 1
Format : AVC
Format/Info : Advanced Video Codec
Format profile : [email protected]
Format settings, CABAC : Yes
Format settings, ReFrames : 9 frames
Codec ID : V_MPEG4/ISO/AVC
Duration : 1h 49mn
Bit rate : 6 495 Kbps
Width : 1 280 pixels
Height : 720 pixels
Display aspect ratio : 16:9
Frame rate mode : Constant
Frame rate : 23.976 fps
Color space : YUV
Chroma subsampling : 4:2:0
Bit depth : 8 bits
Scan type : Progressive
Bits/(Pixel*Frame) : 0.294
Stream size : 4.96 GiB (92%)
Writing library : core 128 r2216 198a7ea
Encoding settings : cabac=1 / ref=9 / deblock=1:-3:-3 / analyse=0x3:0x133 / me=umh / subme=11 / psy=1 / psy_rd=0.90:0.00 / mixed_ref=1 / me_range=48 / chroma_me=1 / trellis=2 / 8x8dct=1 / cqm=0 / deadzone=21,11 / fast_pskip=0 / chroma_qp_offset=-2 / threads=12 / lookahead_threads=2 / sliced_threads=0 / nr=0 / decimate=1 / interlaced=0 / bluray_compat=0 / constrained_intra=0 / bframes=10 / b_pyramid=2 / b_adapt=2 / b_bias=0 / direct=3 / weightb=1 / open_gop=0 / weightp=2 / keyint=240 / keyint_min=24 / scenecut=40 / intra_refresh=0 / rc=crf / mbtree=0 / crf=16.3 / qcomp=0.60 / qpmin=0 / qpmax=69 / qpstep=4 / ip_ratio=1.40 / pb_ratio=1.30 / aq=1:0.80
Language : French
Default : Yes
Forced : No

Audio
ID : 2
Format : AC-3
Format/Info : Audio Coding 3
Mode extension : CM (complete main)
Format settings, Endianness : Big
Codec ID : A_AC3
Duration : 1h 49mn
Bit rate mode : Constant
Bit rate : 448 Kbps
Channel(s) : 6 channels
Channel positions : Front: L C R, Side: L R, LFE
Sampling rate : 48.0 KHz
Bit depth : 16 bits
Compression mode : Lossy
Stream size : 350 MiB (6%)
Title : 448kbps
Language : Ukrainian
Default : Yes
Forced : No

Menu
00:00:00.000 : :Chapter 01
00:00:00.417 : :Chapter 02
00:03:38.885 : :Chapter 03
00:14:55.185 : :Chapter 04
00:26:38.430 : :Chapter 05
00:38:22.842 : :Chapter 06
00:48:12.806 : :Chapter 07
01:02:07.390 : :Chapter 08
01:16:43.890 : :Chapter 09
01:34:02.470 : :Chapter 10


Скріншоти:







Джерело: &


 Трекер:    Зареєстрований   

Завантажити / скачати фільм українською



відео для новачків



 Зареєстрований:   2012-11-13 21:24
 Розмір:   5.41 GB 
 Оцінка фільму:   9.8/10 (Голосів: 13)
   
harmonic 
Частий відвідувач


З нами з: 01.01.11
Востаннє: 23.11.16
Повідомлень: 30

2012-11-15 08:56  
Фільм сподобався!
Приємний, дотепний...
Гадаю він вартує Вашого часу для перегляду.

urij546724 
Відео Гуртом - фільмокрай
Відео Гуртом - фільмокрай


З нами з: 16.03.10
Востаннє: 07.12.16
Повідомлень: 5222

2012-12-06 18:28  
Враження від фільму двоякі. Може я просто звик до американського варіанту комедія+мелодрама. У цьому фільмі сподобалась більше середина, а ось початок і кінцівка виглядали якось банально і нецікаво.
Оцінка 7/10

Віктор 
Відео Гуртом - субтитрування
Відео Гуртом - субтитрування


З нами з: 09.01.10
Востаннє: 07.12.16
Повідомлень: 8663

2012-12-06 19:17  
було б добре прибрати логотип двд, і не забивати людям баки http://www.yakaboo.ua/ru/catalog/all/un-bonheur-narrive-jamais-seul-317593
pyatachok 
Координатор літератури


З нами з: 30.01.10
Востаннє: 07.12.16
Повідомлень: 1337

2012-12-06 20:06  
Віктор
Дякую, так і зробив Happy

BAndrik 
Новенький


З нами з: 30.12.09
Востаннє: 29.08.16
Повідомлень: 2

2013-04-08 18:53  
Ну і де ж ділись всі роздаючі??
ibsd 
Новенький


З нами з: 06.09.10
Востаннє: 04.12.16
Повідомлень: 4

2015-11-12 18:12  
торент живий? ))
дивився вже разів зо три, гляну ще раз

Ваш часовий пояс: GMT + 2 Години

Нова тема   Відповісти