Завантажити та скачати торренти українською


Ruina - Ukruina (2008) [APE] | Black/Death Metal

Нові коментарі

Нова тема   Відповісти
Останній раз роздавалося Myfordownloads (2016-10-05)
Автор Повідомлення
ssTAss 
Модератор музики


З нами з: 05.07.08
Востаннє: 06.12.16
Повідомлень: 10946

2012-11-10 13:58  
Ruina - Ukruina (2008) [APE] | Black/Death Metal

Ruina - Ukruina (2008) [APE] | Black/Death Metal


Стиль: Black/Death Metal
Країна, місто: Україна, Львів
Видавець: Hammermark Art
Виконавці:
Viterzgir – вокал, гітари
Beralb – бас
Algyz Tyr - ударні (сесійний)
Eisenslav - вокал (гість)
Пісні:
    01. Fetters of Freedom [04:02]
    02. The Tree of Kin Is Rotting [03:12]
    03. Without Fear and Death [05:30]
    04. Ukruina [04:49]
    05. Thunderstorm Scattered the Soil [04:51]
    06. Scumhumans Sapiens [02:51]
    07. Black Clouds Covered Ruin [03:54]
    08. Ruptured Soul of Mine [03:59]
    09. Hacked and Crushed [03:05]
    10. Trellegrief [04:27]
log
Exact Audio Copy V0.99 prebeta 5 from 4. May 2009

EAC extraction logfile from 9. April 2010, 15:09

Ruina / Ukruina

Used drive : PHILIPS SPD2414T Adapter: 2 ID: 0

Read mode : Secure
Utilize accurate stream : Yes
Defeat audio cache : Yes
Make use of C2 pointers : No

Read offset correction : 6
Overread into Lead-In and Lead-Out : No
Fill up missing offset samples with silence : Yes
Delete leading and trailing silent blocks : No
Null samples used in CRC calculations : Yes
Used interface : Native Win32 interface for Win NT & 2000

Used output format : Internal WAV Routines
Sample format : 44.100 Hz; 16 Bit; Stereo

TOC of the extracted CD

Track | Start | Length | Start sector | End sector
---------------------------------------------------------
1 | 0:00.00 | 4:02.60 | 0 | 18209
2 | 4:02.60 | 3:12.40 | 18210 | 32649
3 | 7:15.25 | 5:30.17 | 32650 | 57416
4 | 12:45.42 | 4:49.06 | 57417 | 79097
5 | 17:34.48 | 4:51.34 | 79098 | 100956
6 | 22:26.07 | 2:50.72 | 100957 | 113778
7 | 25:17.04 | 3:54.36 | 113779 | 131364
8 | 29:11.40 | 3:59.45 | 131365 | 149334
9 | 33:11.10 | 3:05.32 | 149335 | 163241
10 | 36:16.42 | 4:27.46 | 163242 | 183312

Range status and errors

Selected range

Filename C:\Users\Lionua\Desktop\Ruina - Ukruina.wav

Peak level 100.0 %
Range quality 100.0 %
Copy CRC 4B254E4C
Copy OK

No errors occurred

End of status report
Тривалість: 00:40:44
Мова: українська
Аудіо-кодек: APE
Бітрейт: 1090 кб/с
Джерело: MeTaLMaDNeSS.teaM
Додаткова інформація:
роздача містить скани 300 dpi


Якщо Ви справді бажаєте підтримати українське - після прослуховування, якщо музика вам сподобалась,
придбайте ліцензійний диск.
Підтримаймо вітчизняних виконавців!


Срібний реліз (на рейтинг впливає 50% завантаженого)
 Трекер:    Зареєстрований   

Завантажити / скачати українську музику



відео для новачків



 Зареєстрований:   2012-11-10 13:58
 Розмір:   333 MB 
 Оцінка музики:   7.2/10 (Голосів: 10)
   
ssTAss 
Модератор музики


З нами з: 05.07.08
Востаннє: 06.12.16
Повідомлень: 10946

2012-11-10 13:59  
Oleksa9 
Поважний учасник


З нами з: 17.05.12
Востаннє: 06.12.16
Повідомлень: 225

2012-11-10 15:09  
Ще не слухав, але це наче, щонайменше Black/Death, а не просто Чорний метал Wink (2)
ssTAss 
Модератор музики


З нами з: 05.07.08
Востаннє: 06.12.16
Повідомлень: 10946

2012-11-10 15:24  
Oleksa9 написано:
це наче, щонайменше Black/Death, а не просто Чорний метал

а то є різниця? Wide grin
тоді зміню для Вас)

Oleksa9 
Поважний учасник


З нами з: 17.05.12
Востаннє: 06.12.16
Повідомлень: 225

2012-11-10 15:33  
Wide grin маю знайомого який узагалі усе ROCK-ом називає - не визнає, що існує Metal Wide grin щоправда він ще не чув Дробилки (Grind) Cry (1) Tongue up (1)
Lev 
VIP


З нами з: 14.10.09
Востаннє: 05.12.16
Повідомлень: 1819

2012-12-13 01:37  
ssTAss написано:
а то є різниця?


звісно, і велика.

Ваш часовий пояс: GMT + 2 Години

Нова тема   Відповісти