Завантажити та скачати торренти українською


Згадати все [Розширена версія] / Total Recall [Extended Cut] (2012) AVC

Нові коментарі

Нова тема   Відповісти
Автор Повідомлення
Drool 
VIP


З нами з: 17.04.10
Востаннє: 03.12.16
Повідомлень: 1262

2012-11-10 12:03  
Згадати все [Розширена версія] / Total Recall [Extended Cut] (2012) AVC

Жанр: бойовик, пригодницький, фантастика, трилер
Країна: США, Канада



Кіностудія / кінокомпанія: Original Film, Rekall Productions, Total Recall
Режисер: Лен Вайзман
Актори: Колін Фаррелл, Кейт Бекінсейл, Брайан Кренстон, Білл Найї, Джессіка Біл, Ітан Хоук, Джон Чо

Сюжет:
Усього три новини за день і все життя перевернулось. По-перше, він дізнався, що є шпигуном галактичного значення, по-друге, все його життя і навіть сім'я - підставні, по-третє, кожна друга особа намагається його вбити. Він знає, що робити, щоб урятуватись, знає, як це зробити і хто в усьому цьому винен, але згадати, на жаль, ніяк не може. Тепер йому потрібно скласти пам'ять як мозаїку, це єдине, що він ще може собі повернути...


Тривалість: 02:10:16
Якість:
Відео:
кодек:
розмір кадру: 1032x430
бітрейт: 2293 кб/с

Аудіо:
мова: українська
переклад: професійний дубльований
кодек: 5.1
бітрейт: 448 кб/с

Джерело озвучення:


Субтитри:
мова: українська
тип: програмні, форсовані (м'які)
формат: *.srt
MediaInfo
General
Unique ID : 192377793603184686006426788676064739873 (0x90BA9D867FEA3CD4360CE51714178221)
Complete name : /mnt/disk_d/Video/Films/Total.Recall.Ext.2012.Ukr.Dub.AVC.mkv
Format : Matroska
File size : 2.49 GiB
Duration : 2h 10mn
Overall bit rate : 2 738 Kbps
Movie name : Згадати все / Total Recall [розширена версія] (2012) AVC | video by Vaippp (HQ-ViDEO)
Encoded date : UTC 2012-11-10 08:55:19
Writing application : mkvmerge v4.8.0 ('I Got The...') built on Aug 22 2011 13:16:28
Writing library : libebml v1.2.0 + libmatroska v1.1.0

Video
ID : 1
Format : AVC
Format/Info : Advanced Video Codec
Format profile : [email protected]
Format settings, CABAC : Yes
Format settings, ReFrames : 9 frames
Format settings, GOP : M=8, N=27
Codec ID : V_MPEG4/ISO/AVC
Duration : 2h 10mn
Bit rate : 2 293 Kbps
Width : 1 032 pixels
Height : 430 pixels
Display aspect ratio : 2.40:1
Frame rate : 23.976 fps
Color space : YUV
Chroma subsampling : 4:2:0
Bit depth : 8 bits
Scan type : Progressive
Bits/(Pixel*Frame) : 0.216
Stream size : 2.03 GiB (82%)
Title : Vaippp
Writing library : core 128 r2216 198a7ea
Encoding settings : cabac=1 / ref=9 / deblock=1:-1:-1 / analyse=0x3:0x133 / me=umh / subme=10 / psy=1 / psy_rd=1.05:0.03 / mixed_ref=1 / me_range=24 / chroma_me=1 / trellis=2 / 8x8dct=1 / cqm=0 / deadzone=21,11 / fast_pskip=0 / chroma_qp_offset=-3 / threads=12 / lookahead_threads=2 / sliced_threads=0 / nr=0 / decimate=0 / interlaced=0 / bluray_compat=0 / constrained_intra=0 / bframes=10 / b_pyramid=2 / b_adapt=2 / b_bias=0 / direct=3 / weightb=1 / open_gop=0 / weightp=2 / keyint=240 / keyint_min=22 / scenecut=40 / intra_refresh=0 / rc_lookahead=60 / rc=2pass / mbtree=0 / bitrate=2293 / ratetol=1.0 / qcomp=0.70 / qpmin=0 / qpmax=69 / qpstep=4 / cplxblur=20.0 / qblur=0.5 / vbv_maxrate=50000 / vbv_bufsize=62500 / nal_hrd=none / ip_ratio=1.40 / pb_ratio=1.30 / aq=1:0.60 / zones=175944,187402,q=35
Language : English
Color primaries : BT.709-5, BT.1361, IEC 61966-2-4, SMPTE RP177
Transfer characteristics : BT.709-5, BT.1361
Matrix coefficients : BT.709-5, BT.1361, IEC 61966-2-4 709, SMPTE RP177

Audio
ID : 2
Format : AC-3
Format/Info : Audio Coding 3
Mode extension : CM (complete main)
Codec ID : A_AC3
Duration : 2h 10mn
Bit rate mode : Constant
Bit rate : 448 Kbps
Channel(s) : 6 channels
Channel positions : Front: L C R, Side: L R, LFE
Sampling rate : 48.0 KHz
Bit depth : 16 bits
Compression mode : Lossy
Stream size : 417 MiB (16%)
Title : Рідна мова
Language : Ukrainian

Text
ID : 3
Format : UTF-8
Codec ID : S_TEXT/UTF8
Codec ID/Info : UTF-8 Plain Text
Title : Українські (форсовані)
Language : Ukrainian

Menu
00:00:00.000 : en:00:00:00.000
00:08:45.775 : en:00:08:45.775
00:18:00.705 : en:00:18:00.705
00:24:13.243 : en:00:24:13.243
00:31:19.878 : en:00:31:19.878
00:39:54.267 : en:00:39:54.267
00:45:38.819 : en:00:45:38.819
00:49:45.607 : en:00:49:45.607
00:58:12.280 : en:00:58:12.280
01:05:40.186 : en:01:05:40.186
01:15:06.960 : en:01:15:06.960
01:21:05.110 : en:01:21:05.110
01:27:23.112 : en:01:27:23.112
01:37:45.776 : en:01:37:45.776
01:43:17.649 : en:01:43:17.649
01:51:29.682 : en:01:51:29.682
Скріншоти











Джерело:
Особиста оцінка: 8 - мені сподобалося


 Трекер:    Зареєстрований   

Завантажити / скачати фільм українською



відео для новачків



 Зареєстрований:   2012-11-10 13:25
 Розмір:   2.49 GB 
 Оцінка фільму:   9.7/10 (Голосів: 20)
   
Drool 
VIP


З нами з: 17.04.10
Востаннє: 03.12.16
Повідомлень: 1262

2012-11-10 13:35  
Виправив кодування субтитрів, перезалив торрент, прошу перекачати. Вибачаюсь за незручності. Маю надію, що ще ніхто не встиг щось скачати Happy
maddd 
Поважний учасник


З нами з: 25.03.09
Востаннє: 06.11.16
Повідомлень: 236

2012-11-10 16:08  
Не сильно вони старались щось змінити порівняно з оригіналом Happy



Drool
Що в тебе з віддачею ? де ті 7 мб/с, які показані в твому профілі Happy ?

Drool 
VIP


З нами з: 17.04.10
Востаннє: 03.12.16
Повідомлень: 1262

2012-11-10 17:34  
Колись давно потрапив на акцiю провайдера, без обмежень мiсяць за 1 грн. Тепер в мене звичайний Укуртелеком, але в профiлi все по старому. Мабуть там фiксанувся максимум.
Ваш часовий пояс: GMT + 2 Години

Нова тема   Відповісти