Завантажити та скачати торренти українською


Згадати все [Розширена версія] / Total Recall [Extended Cut] (2012) 720p Ukr/Eng | sub Eng

Нові коментарі

Нова тема   Відповісти
Автор Повідомлення
DеLight 
Відео Гуртом - фільмокрай
Відео Гуртом - фільмокрай


З нами з: 24.08.11
Востаннє: 17.11.16
Повідомлень: 664

2012-11-09 18:53  
Згадати все [Розширена версія] / Total Recall [Extended Cut] (2012) 720p Ukr/Eng | sub Eng

Згадати все [Розширена версія] / Total Recall [Extended Cut] (2012) 720p Ukr/Eng | sub Eng

«Ти те, що ти пам'ятаєш»


Жанр: екшн, пригодницький, фантастика
Країна: США, Канада



Кіностудія / кінокомпанія: Original Film, Rekall Productions, Total Recall



Лен Вайзман / Len Wiseman

Колін Фаррелл / Colin Farrell, Кейт Бекінсейл / Kate Beckinsale, Джессіка Біл / Jessica Biel, Ітан Гоук / Ethan Hawke, Брайан Кренстон / Bryan Cranston, Букім Вудбайн / Bokeem Woodbine, Білл Наї / Bill Nighy, Джон Чо / John Cho та інші

Усього три новини за день і все життя перевернулось. По-перше, він дізнався, що є шпигуном галактичного значення, по-друге, все його життя і навіть сім’я - підставні, по-третє, кожна друга особа намагається його вбити. Він знає, що робити, щоб урятуватись, знає, як це зробити і хто в усьому цьому винен, але згадати, на жаль, ніяк не може. Тепер йому потрібно скласти пам'ять як мозаїку, це єдине, що він ще може собі повернути...



Тривалість: 02:10:16
Якість: 720p [ріп від HDChina]

Відео:
кодек:
розмір кадру: 1280 x 534
бітрейт: 4,6 Мб/с

Аудіо #1:
мова: українська
переклад: професійний дубльований | LeDoyen Studio
кодек: 5.1
бітрейт: 640 кб/с
Інформація про дубляж

Переклад: Федора Сидорука
Режисер дубляжу: Анна Пащенко
Звукорежисер: Марія Нестеренко
Координатор дубляжу: Валентина Левицька
Ролі дублювали: Андрій Твердак, Світлана Шекера, Ірина Ткаленко, Григорій Герман, Валерій Легін, Андрій Федінчик
Джерело озвучення:


Аудіо #2:
мова: англійська
переклад: оригінал
кодек: 5.1
бітрейт: 640 кб/с

Аудіо #3: Commentary
мова: англійська
переклад: оригінал
кодек: 2.0
бітрейт: 192 кб/с

Субтитри #1: форсовані
мова: українська
тип: програмні (м'які)
формат: *.srt

Субтитри #2:
мова: англійська
тип: програмні (м'які)
формат: *.srt

Збережені оригінальні розділи як на Blu-ray


Трейлери (україномовний та офіційний (HD))




MediaInfo

Код:
General
Unique ID                      : 177960929580139033958423818978471556935 (0x85E207400A7DA0D58C2A5D91F2B5B747)
Complete name                  : D:\Torrents\Total Recall [Extended Cut] (2012) 720p [Ukr, Eng] [Hurtom].mkv
Format                         : Matroska
Format version                 : Version 2
File size                      : 5.53 GiB
Duration                       : 2h 10mn
Overall bit rate               : 6 074 Kbps
Movie name                     : Total Recall [Extended Version] (2012) 720p [Ukr, Eng] [Hurtom & HDChina] by Delight
Encoded date                   : UTC 2012-11-09 15:54:58
Writing application            : mkvmerge v5.8.0 ('No Sleep / Pillow') built on Sep  2 2012 15:37:04
Writing library                : libebml v1.2.3 + libmatroska v1.3.0

Video
ID                             : 1
Format                         : AVC
Format/Info                    : Advanced Video Codec
Format profile                 : [email protected]
Format settings, CABAC         : Yes
Format settings, ReFrames      : 12 frames
Codec ID                       : V_MPEG4/ISO/AVC
Duration                       : 2h 10mn
Bit rate                       : 4 600 Kbps
Width                          : 1 280 pixels
Height                         : 534 pixels
Display aspect ratio           : 2.40:1
Frame rate mode                : Constant
Frame rate                     : 23.976 fps
Color space                    : YUV
Chroma subsampling             : 4:2:0
Bit depth                      : 8 bits
Scan type                      : Progressive
Bits/(Pixel*Frame)             : 0.281
Stream size                    : 4.08 GiB (74%)
Title                          : Total Recall [Extended Version] (2012) 720p [HDChina]
Writing library                : core 128 r2216+688+33 06dac27 tMod+MixAQ [[email protected]:2:0 X86_64]
Encoding settings              : cabac=1 / ref=12 / deblock=1:-2:-2 / analyse=0x3:0x113 / me=umh / subme=10 / psy=1 / fade_compensate=0.00 / psy_rd=1.10:0.00 / mixed_ref=1 / me_range=32 / chroma_me=1 / trellis=2 / 8x8dct=1 / cqm=0 / deadzone=21,11 / fast_pskip=0 / chroma_qp_offset=-2 / threads=18 / lookahead_threads=3 / sliced_threads=0 / nr=0 / decimate=0 / interlaced=0 / bluray_compat=0 / constrained_intra=0 / fgo=0 / bframes=8 / b_pyramid=2 / b_adapt=2 / b_bias=0 / direct=3 / weightb=1 / open_gop=0 / weightp=2 / keyint=240 / keyint_min=24 / scenecut=40 / intra_refresh=0 / rc_lookahead=240 / rc=2pass / mbtree=1 / bitrate=4600 / ratetol=1.0 / qcomp=0.70 / qpmin=0 / qpmax=69 / qpstep=4 / cplxblur=20.0 / qblur=0.5 / ip_ratio=1.10 / aq=4 / aq-strength=0.90 / aq-sensitivity=10.00 / aq-ifactor=1.00 / aq-pfactor=1.00 / aq-bfactor=1.00 / aq2=0
Language                       : English
Default                        : Yes
Forced                         : No

Audio #1
ID                             : 2
Format                         : AC-3
Format/Info                    : Audio Coding 3
Mode extension                 : CM (complete main)
Format settings, Endianness    : Big
Codec ID                       : A_AC3
Duration                       : 2h 10mn
Bit rate mode                  : Constant
Bit rate                       : 640 Kbps
Channel(s)                     : 6 channels
Channel positions              : Front: L C R, Side: L R, LFE
Sampling rate                  : 48.0 KHz
Bit depth                      : 16 bits
Compression mode               : Lossy
Stream size                    : 596 MiB (11%)
Title                          : 5.1; 640 kbps; професійний дубльований {LeDoyen Studio}
Language                       : Ukrainian
Default                        : Yes
Forced                         : No

Audio #2
ID                             : 3
Format                         : AC-3
Format/Info                    : Audio Coding 3
Mode extension                 : CM (complete main)
Format settings, Endianness    : Big
Codec ID                       : A_AC3
Duration                       : 2h 10mn
Bit rate mode                  : Constant
Bit rate                       : 640 Kbps
Channel(s)                     : 6 channels
Channel positions              : Front: L C R, Side: L R, LFE
Sampling rate                  : 48.0 KHz
Bit depth                      : 16 bits
Compression mode               : Lossy
Stream size                    : 596 MiB (11%)
Title                          : 5.1; 640 kbps; original
Language                       : English
Default                        : No
Forced                         : No

Audio #3
ID                             : 4
Format                         : AC-3
Format/Info                    : Audio Coding 3
Format profile                 : Dolby Digital
Mode extension                 : CM (complete main)
Format settings, Endianness    : Big
Codec ID                       : A_AC3
Duration                       : 2h 10mn
Bit rate mode                  : Constant
Bit rate                       : 192 Kbps
Channel(s)                     : 2 channels
Channel positions              : Front: L R
Sampling rate                  : 48.0 KHz
Bit depth                      : 16 bits
Compression mode               : Lossy
Stream size                    : 179 MiB (3%)
Title                          : commentary
Language                       : English
Default                        : No
Forced                         : No

Text #1
ID                             : 5
Format                         : UTF-8
Codec ID                       : S_TEXT/UTF8
Codec ID/Info                  : UTF-8 Plain Text
Title                          : forced
Language                       : Ukrainian
Default                        : Yes
Forced                         : No

Text #2
ID                             : 6
Format                         : UTF-8
Codec ID                       : S_TEXT/UTF8
Codec ID/Info                  : UTF-8 Plain Text
Title                          : full
Language                       : English
Default                        : No
Forced                         : No

Menu
00:00:00.000                   : en:00:00:00.000
00:08:45.775                   : en:00:08:45.775
00:18:00.705                   : en:00:18:00.705
00:24:13.243                   : en:00:24:13.243
00:31:19.878                   : en:00:31:19.878
00:39:54.267                   : en:00:39:54.267
00:45:38.819                   : en:00:45:38.819
00:49:45.607                   : en:00:49:45.607
00:58:12.280                   : en:00:58:12.280
01:05:40.186                   : en:01:05:40.186
01:15:06.960                   : en:01:15:06.960
01:21:05.110                   : en:01:21:05.110
01:27:23.112                   : en:01:27:23.112
01:37:45.776                   : en:01:37:45.776
01:43:17.649                   : en:01:43:17.649
01:51:29.682                   : en:01:51:29.682

Світлини









Джерело: &
Особиста оцінка: 9 - сподобалось, хоча й не ідеальне


 Трекер:    Зареєстрований   

Завантажити / скачати фільм українською



відео для новачків



 Зареєстрований:   2012-11-09 18:53
 Розмір:   5.53 GB 
 Оцінка фільму:   9.2/10 (Голосів: 37)
   
Gybalj 
Свій


З нами з: 14.05.09
Востаннє: 04.12.16
Повідомлень: 51

2012-11-09 19:32  
Хлопці, дайте швидкості! Дякую!
Перлина 
Свій


З нами з: 22.03.10
Востаннє: 04.12.16
Повідомлень: 102

2012-11-09 21:22  
як по мені то вже просто 3д не проймає.
Hanway 
Відео Гуртом - запис з ТБ
Відео Гуртом - запис з ТБ


З нами з: 20.05.11
Востаннє: 04.12.16
Повідомлень: 461

2012-11-10 15:40  
Ну непогано, порадувала чудова атмосфера кіберпанку. Але це все. Ні в яке порівняння з оригіналом, та й Арні незамінний.
Virake 
Localize Team
Localize Team


З нами з: 07.07.09
Востаннє: 04.12.16
Повідомлень: 4052

2012-11-11 16:38  
подивився це кіно. хочу одразу сказати, що з попереднім фільмом із такою назовою спільного мало - лише деякі моменти і загальна ідея. але це його не зіпсувало, а навпаки - вдихнуло нове життя.

"Згадати все" - як на мене, найкращий екшн цього року. з оригіналом його порівнювати не має сенсу, бо вони надто різні. обидва зачаровують, але різними способами. одне можу сказати точно - цьогорічний фільм вийшов дуже красивим, атмосферним і динамічним.

з головних вартостей цього твору: картинка і звук. начебто, в багатьох сучасних фільмах ці елементи на висоті, але саме тут вони поєдналися в щось неймовірне, що зветься атмосферою. додати сюди динамічні сцени та цілком пристойну акторську гру і вийде хороший коктейль на 9 балів. таки так, давно не бачив настільки якісне кіно.

єдине, що не сподобалося - це певні прогалині в сюжеті та купа русизмів у перекладі.

ktw14 
Свій


З нами з: 24.03.11
Востаннє: 03.12.16
Повідомлень: 118

2013-01-18 18:15  
Не поганий фільм на 8 балів, трохи сюжет не зрозумілий
kool 
Новенький


З нами з: 21.01.13
Востаннє: 22.02.13
Повідомлень: 1

2013-01-25 02:23  
Фільм тримається на одному подиху.....Захоплює достатньо щоб сказати про нього тільки позитивне,та рекондую всім цей фільм до перегляду...Якісний фільм.Багато цікавої фантазії.
Ваш часовий пояс: GMT + 2 Години

Нова тема   Відповісти