Завантажити та скачати торренти українською


Солодкий листопад / Sweet November (2001) AVC Ukr | sub Eng

Нові коментарі

Нова тема   Відповісти
Автор Повідомлення
DеLight 
Відео Гуртом - фільмокрай
Відео Гуртом - фільмокрай


З нами з: 24.08.11
Востаннє: 17.11.16
Повідомлень: 664

2012-11-09 09:59  
Солодкий листопад / Sweet November (2001) AVC Ukr | sub Eng


Солодкий листопад / Sweet November (2001) AVC Ukr | sub Eng

«She Just Needed A Month To Change His Life For Ever.»


Жанр: драма, романтичний
Країна: США



Кіностудія / кінокомпанія: 3 Art Entertainment, Bel Air Entertainment, Warner Bros. Pictures



Пет О'Коннор / Pat O'Connor

Кіану Рівз / Keanu Reeves, Шарліз Терон / Charlize Theron, Джейсон Айзекс / Jason Isaacs, Ґрег Ґерманн / Greg Germann, Ліам Айкен / Liam Aiken, Роберт Джой / Robert Joy, Лорен Ґрем / Lauren Graham, Майкл Розенбаум / Michael Rosenbaum, Френк Ланджелла / Frank Langella, Джейсон Кравіц / Jason Kravits, Рей Байкер / Ray Baker та інші

Усе своє життя Нельсон Мосс присвячує кар'єрі у рекламному бізнесі. Іншого способу життя він не уявляє або просто не помічає. Але зустрівши на своєму шляху ексцентричну Сару, яка через нього провалила іспит на водійська права, Нельсон змушений провести із нею місяць свого заклопотаного життя. А їй більше і не треба, за один місяць вона змусить його прожити інше життя, яке він досі відмовлявся помічати. Головне - жодних зобов'язань, жодного тиску і жодної закоханості.
Головним саундтреком до фільму є відомий хіт "Enya - Only Time", який додов йому ще більше ніжності і романтичності.



Тривалість: 02:00:12
Якість: AVC

Відео:
кодек:
розмір кадру: 1024 x 576
бітрейт: 2,5 Мб/с

Аудіо:
мова: українська
переклад: багатоголосий закадровий
кодек: 2.0
бітрейт: 192 кб/с

Субтитри:
мова: англійська
тип: програмні (м'які)
формат: *.srt


Примітка

Озвучка, яка записана з Інтеру і використана в 'ах, що є на Толоці, ідентична до даної.
Ця озвучка записана з Нового каналу і зведена під 23,976 fps.

MediaInfo

Код:
General
Unique ID                      : 248670462523528192592134720893667534572 (0xBB143062B048C32FAC97D2BFFA2066EC)
Complete name                  : D:\Torrents\Sweet November (2001) AVC [Ukr] [Hurtom & NovaLan].mkv
Format                         : Matroska
Format version                 : Version 2
File size                      : 2.26 GiB
Duration                       : 2h 0mn
Overall bit rate               : 2 692 Kbps
Movie name                     : Sweet November (2001) (AVC) [Ukr] [Hurtom & NovaLan] by Delight
Encoded date                   : UTC 2012-11-08 15:55:52
Writing application            : mkvmerge v5.8.0 ('No Sleep / Pillow') built on Sep  2 2012 15:37:04
Writing library                : libebml v1.2.3 + libmatroska v1.3.0

Video
ID                             : 1
Format                         : AVC
Format/Info                    : Advanced Video Codec
Format profile                 : [email protected]
Format settings, CABAC         : Yes
Format settings, ReFrames      : 8 frames
Codec ID                       : V_MPEG4/ISO/AVC
Duration                       : 2h 0mn
Bit rate                       : 2 500 Kbps
Width                          : 1 024 pixels
Height                         : 576 pixels
Display aspect ratio           : 16:9
Frame rate mode                : Constant
Frame rate                     : 23.976 fps
Color space                    : YUV
Chroma subsampling             : 4:2:0
Bit depth                      : 8 bits
Scan type                      : Progressive
Bits/(Pixel*Frame)             : 0.177
Stream size                    : 2.05 GiB (91%)
Title                          : Sweet November (2001) (AVC)
Writing library                : core 92 r1510 33d382a
Encoding settings              : cabac=1 / ref=8 / deblock=1:-2:-2 / analyse=0x3:0x133 / me=umh / subme=10 / psy=1 / psy_rd=1.00:0.10 / mixed_ref=1 / me_range=48 / chroma_me=1 / trellis=2 / 8x8dct=1 / cqm=0 / deadzone=21,11 / fast_pskip=0 / chroma_qp_offset=-3 / threads=6 / sliced_threads=0 / nr=0 / decimate=1 / interlaced=0 / constrained_intra=0 / bframes=8 / b_pyramid=2 / b_adapt=2 / b_bias=0 / direct=3 / wpredb=1 / wpredp=2 / keyint=240 / keyint_min=23 / scenecut=40 / intra_refresh=0 / rc_lookahead=50 / rc=2pass / mbtree=1 / bitrate=2500 / ratetol=1.0 / qcomp=0.60 / qpmin=10 / qpmax=51 / qpstep=4 / cplxblur=20.0 / qblur=0.5 / ip_ratio=1.40 / aq=1:1.00
Language                       : English
Default                        : Yes
Forced                         : No

Audio
ID                             : 2
Format                         : AC-3
Format/Info                    : Audio Coding 3
Mode extension                 : CM (complete main)
Format settings, Endianness    : Big
Codec ID                       : A_AC3
Duration                       : 2h 0mn
Bit rate mode                  : Constant
Bit rate                       : 192 Kbps
Channel(s)                     : 2 channels
Channel positions              : Front: L R
Sampling rate                  : 48.0 KHz
Bit depth                      : 16 bits
Compression mode               : Lossy
Stream size                    : 165 MiB (7%)
Title                          : 2.0; 192 kbps; багатоголосий закадровий {Новий канал}
Language                       : Ukrainian
Default                        : Yes
Forced                         : No

Text
ID                             : 3
Format                         : UTF-8
Codec ID                       : S_TEXT/UTF8
Codec ID/Info                  : UTF-8 Plain Text
Title                          : English
Language                       : English
Default                        : No
Forced                         : No

Світлини














Джерело: & [За наданий запис подяка xslim. Автор постеру: xslim]
Особиста оцінка: 10 - слова зайві


Срібний реліз (на рейтинг впливає 50% завантаженого)
 Трекер:    Зареєстрований   

Завантажити / скачати фільм українською



відео для новачків



 Зареєстрований:   2012-11-09 09:59
 Розмір:   2.26 GB 
 Оцінка фільму:   9.7/10 (Голосів: 34)
   
Інші релізи
   Солодкий листопад / Sweet November (2001) 720p Ukr/Eng | sub Eng xfsthe  1 / 0   8.06 GB   2015-03-04 21:34 
   Солодкий листопад / Sweet November (2001) Ukr/Eng BASTERD-94  5 / 0   2.18 GB   2011-08-21 22:14 
   Солодкий листопад / Sweet November (2001) Snooppy  3 / 0   1.45 GB   2010-02-15 21:00 
tvv 
Новенький


З нами з: 26.05.10
Востаннє: 26.11.16
Повідомлень: 9

2012-11-09 11:24  
Бомбезний фільм )
karvai0 
Відео Гуртом - запис з ТБ
Відео Гуртом - запис з ТБ


З нами з: 18.01.10
Востаннє: 09.09.16
Повідомлень: 3686

2012-11-09 12:06  
в попередніх релізах та сама озвучка?
DеLight 
Відео Гуртом - фільмокрай
Відео Гуртом - фільмокрай


З нами з: 24.08.11
Востаннє: 17.11.16
Повідомлень: 664

2012-11-09 12:16  
karvai0
Так, зазначив це в примітці.

don pedro 
Попереджень: 1
Попереджень: 1 


З нами з: 29.06.11
Востаннє: 08.12.16
Повідомлень: 8761

2012-11-10 02:05  
Фільм трагічно-правдивий, і тому чудовий.
morr-all 
Новенький


З нами з: 26.06.11
Востаннє: 03.12.16
Повідомлень: 8

2014-07-24 14:53  
Чудовий фільм. Спасибі за якісний реліз
boroznaya 
VIP


З нами з: 02.11.12
Востаннє: 08.12.16
Повідомлень: 1876

2015-09-19 11:08  
Фільм залишив після себе незабутні враження. Нестандартна історія, навіть трішки наївна, але все одно цікава. Від мене 7 з 10! Рекомендую до перегляду!
Bulka27 
Відео Гуртом - фільмокрай
Відео Гуртом - фільмокрай


З нами з: 27.11.09
Востаннє: 08.12.16
Повідомлень: 760

2016-10-22 12:06  
Щось я занудьгував під час перегляду. мабуть не мав відповідного настрою або ж став черствіти.
Зауважив що Кіану під час діалогів забагато жестикулює руками із долонями доверху - це дратує ) Кіану не справився і не підійшов під цю роль.
збоченці в стрічці також зайві.

Ваш часовий пояс: GMT + 2 Години

Нова тема   Відповісти