Завантажити та скачати торренти українською


Останній мисливець / Hunter Prey (2010) Remux Ukr/Eng | Sub Eng

Нові коментарі

Нова тема   Відповісти
Останній раз роздавалося leroykendall (2016-11-20)
Автор Повідомлення
НТН 
Відео Гуртом - фільмокрай
Відео Гуртом - фільмокрай


З нами з: 25.12.11
Востаннє: 10.11.16
Повідомлень: 2001

2012-11-07 12:38  
Останній мисливець / Hunter Prey (2010) Remux Ukr/Eng | Sub Eng

Останній мисливець / Hunter Prey (2010) Remux Ukr/Eng | Sub Eng


Жанр: фантастика, бойовик
Країна: США



Кіностудія / кінокомпанія: MovieHouse Entertainment $ QuickFire Films Limited
Режисер: Сенді Коллора
Актори: Айзек С. Сінглтон мол., Кларк Бартрем, Деміон Пуатьє, Саймон Поттер, Ерін Грей

Сюжет: Тюремний зореліт, що виконував передачу небезпечного міжгалактичного злочинця, зазнає аварії на пустельній планеті. Конвоїри, що вижили, виявляють, що ув'язнений зник. Розуміючи, що в пустелі він далеко не втече, солдати відправляються на пошуки. Але дуже скоро стає зрозуміло, що мисливці самі перетворилися в мішень…

Тривалість: 01:27:53
Якість:
Відео:
кодек:
розмір кадру: 1920х1080
бітрейт: 19880 кб/с

Аудіо # 1:
мова: українська
переклад: багатоголосий закадровий
кодек: 5.1
бітрейт: 384 кб/с

Аудіо # 2:
мова: англійська
переклад: оригінал
кодек: -HD 5.1
бітрейт: 1888 кб/с

Субтитри:
мова: англійська
тип: програмні (м'які)
формат: *.srt

MediaInfo
General
Unique ID : 196320585772250941362716387083422270950 (0x93B1F83017D3BE4DB1895166DC9805E6)
Complete name : E:\Hunter Prey (2010) [Ukr_Eng, sub Eng] Remux [Hurtom].mkv
Format : Matroska
Format version : Version 2
File size : 13.6 GiB
Duration : 1h 27mn
Overall bit rate mode : Variable
Overall bit rate : 22.2 Mbps
Movie name : Hunter Prey (2010) [Ukr] Remux [Hurtom]
Encoded date : UTC 2012-11-07 09:03:32
Writing application : mkvmerge v2.9.7 ('Tenderness') built on Jul 1 2009 18:43:35
Writing library : libebml v0.7.7 + libmatroska v0.8.1

Video
ID : 1
Format : AVC
Format/Info : Advanced Video Codec
Format profile : [email protected]
Format settings, CABAC : Yes
Format settings, ReFrames : 4 frames
Format settings, GOP : M=3, N=24
Codec ID : V_MPEG4/ISO/AVC
Duration : 1h 27mn
Bit rate mode : Variable
Bit rate : 19.8 Mbps
Maximum bit rate : 35.0 Mbps
Width : 1 920 pixels
Height : 1 080 pixels
Display aspect ratio : 16:9
Frame rate : 23.976 fps
Standard : NTSC
Color space : YUV
Chroma subsampling : 4:2:0
Bit depth : 8 bits
Scan type : Progressive
Bits/(Pixel*Frame) : 0.398
Stream size : 12.1 GiB (89%)
Title : Hunter Prey (2010) [Ukr] Remux [Hurtom]
Language : Ukrainian
Default : Yes
Forced : No
Color primaries : BT.709-5, BT.1361, IEC 61966-2-4, SMPTE RP177
Transfer characteristics : BT.709-5, BT.1361
Matrix coefficients : BT.709-5, BT.1361, IEC 61966-2-4 709, SMPTE RP177

Audio #1
ID : 2
Format : AC-3
Format/Info : Audio Coding 3
Mode extension : CM (complete main)
Format settings, Endianness : Big
Codec ID : A_AC3
Duration : 1h 27mn
Bit rate mode : Constant
Bit rate : 384 Kbps
Channel(s) : 6 channels
Channel positions : Front: L C R, Side: L R, LFE
Sampling rate : 48.0 KHz
Bit depth : 16 bits
Compression mode : Lossy
Stream size : 241 MiB (2%)
Title : Українська доріжка
Language : Ukrainian
Default : Yes
Forced : No

Audio #2
ID : 3
Format :
Format/Info : Digital Theater Systems
Format profile : MA / Core
Codec ID : A_DTS
Duration : 1h 27mn
Bit rate mode : Variable
Bit rate : 1 561 Kbps / 1 510 Kbps
Channel(s) : 6 channels
Channel positions : Front: L C R, Side: L R, LFE
Sampling rate : 48.0 KHz
Bit depth : 16 bits
Compression mode : Lossless / Lossy
Title : Англійська доріжка
Language : English
Default : No
Forced : No

Text
ID : 4
Format : UTF-8
Codec ID : S_TEXT/UTF8
Codec ID/Info : UTF-8 Plain Text
Title : Англійські субтитри
Language : English
Default : Yes
Forced : No

Menu
00:00:00.000 : de:Chapter 01
00:07:41.461 : de:Chapter 02
00:15:32.765 : de:Chapter 03
00:21:54.646 : de:Chapter 04
00:27:46.665 : de:Chapter 05
00:35:11.526 : de:Chapter 06
00:42:10.527 : de:Chapter 07
00:50:49.421 : de:Chapter 08
00:58:15.492 : de:Chapter 09
01:04:02.964 : de:Chapter 10
01:14:02.438 : de:Chapter 11
01:18:26.702 : de:Chapter 12
01:27:53.226 : de:Chapter 13
Скріншоти






Джерело:
Особиста оцінка: 8 - мені сподобалося


Золотий реліз (завантажене не впливає на рейтинг)
 Трекер:    Зареєстрований   

Завантажити / скачати фільм українською



відео для новачків



 Зареєстрований:   2012-11-07 12:38
 Розмір:   13.6 GB 
 Оцінка фільму:   8.2/10 (Голосів: 5)
   
Інші релізи
   Останній мисливець / Hunter Prey (2010) 720p Ukr/Eng OlegCena  0 / 0   2.82 GB   2012-11-06 21:02 
   Останній Мисливець / Hunter Prey (2010) НТН  1 / 0   1.46 GB   2012-11-06 20:02 
Віктор 
Відео Гуртом - субтитрування
Відео Гуртом - субтитрування


З нами з: 09.01.10
Востаннє: 03.12.16
Повідомлень: 8662

2012-11-07 15:49  
Тут є якісний постер http://www.blu-ray.com/movies/Hunter-Prey-Blu-ray/22799/ щоправда німецькою мовою.) І в укр. мові не пишуть усі слова з великої літери, це я про назву.
The_Marlboro 
Відео Гуртом - субтитрування
Відео Гуртом - субтитрування


З нами з: 23.05.10
Востаннє: 02.12.16
Повідомлень: 2854

2012-11-07 17:00  
w2958l, а може "мисливець" вжито в значенні імені?
ratbol 
Модератор HD


З нами з: 03.02.09
Востаннє: 01.12.16
Повідомлень: 1088

2012-11-07 18:29  
TheMarlboro
На кінопошуку назва еквівалентна, мисливесь - не ім'я.
Тож...
w2958l написано:
І в укр. мові не пишуть усі слова з великої літери, це я про назву.

зауваження залишається в силі.

Додано через 2 хвилини 51 секунду:

Заодно виправте бітрейт англійської -HD, має бути 1888 кб. Медіаінфо бреше Happy

Gespenst 
Поважний учасник


З нами з: 30.09.09
Востаннє: 03.12.16
Повідомлень: 211

2012-11-08 19:45  
Фільм без закінчення.
НТН 
Відео Гуртом - фільмокрай
Відео Гуртом - фільмокрай


З нами з: 25.12.11
Востаннє: 10.11.16
Повідомлень: 2001

2012-11-08 21:46  
Gespenst
Маєте на увазі сюжет. Так закінчення могли краще вигадати.

Gespenst 
Поважний учасник


З нами з: 30.09.09
Востаннє: 03.12.16
Повідомлень: 211

2012-11-08 22:56  
НТН написано:
НТН

А то було закінчення? :-)

Ваш часовий пояс: GMT + 2 Години

Нова тема   Відповісти