Завантажити та скачати торренти українською


Крода (Kroda) - Funf Jahre Kulturkampf (2009) [APE] | Pagan/Folk Black Metal

Нові коментарі

Нова тема   Відповісти
Останній раз роздавалося Sloneniatko (2016-12-05)
Автор Повідомлення
ssTAss 
Модератор музики


З нами з: 05.07.08
Востаннє: 06.12.16
Повідомлень: 10946

2012-11-06 20:50  
Крода (Kroda) - Funf Jahre Kulturkampf (2009) [APE] | Pagan/Folk Black Metal

Крода (Kroda) - Funf Jahre Kulturkampf (2009) [APE] | Pagan/Folk Black Metal


Стиль: Black
Країна, місто: Україна, Львів
Сайти: Офіційний сайт
Видавець: HAMMERMARK ART records
Виконавці:
Viterzgir – гітара, акустична гітара, вокал, сопілка, окарина, дримба, трембіта, ріг, перкусія
Eisenslav – вокал, дримба, трембіта, ріг
Beralb – бас гітара
Serejen’ - гітара, акустична гітара
Olgerd - клавіші
Tur - барабани
Пісні:
    1. Autumn… Twilight… Fog… (Intro)
    2. Falcon Among The Cliffs
    3. Seid Runar Flammer
    4. Ghosts Of Birds
    5. Native Land (Instrumental Intro) /Kampf version 2008/
    6. Cry To Me, River… /Kampf version 2008/
    7. Wind From The Mountains (Spring is Comming) /Kampf version 2008/
    8. Where Brave Warriors Shalt Meet Again… /Kampf version 2008/
    9. …Funeral Pyres (Instrumental)
    10. By The Hammer Of Spirit And Identity Of Blood… /Kampf version 2008/
    11. Oj, Na Gori… (Ukrainian traditional song cover)
    12. Poppyflowers Are Blossoming (Part II) /Kampf version 2008/
    13. …By The Last Autumnal Breath (Instrumental Outro) /Kampf version 2008/
    14. Der Scharlachrote Tod (Absurd cover)
    15.Wind Of Changes (Sokyra Peruna cover)
log
Exact Audio Copy V0.99 prebeta 5 from 4. May 2009

EAC extraction logfile from 26. July 2010, 12:20

Kroda / Funf Jahre Kulturkampf

Used drive : PHILIPS SPD2414T Adapter: 2 ID: 0

Read mode : Secure
Utilize accurate stream : Yes
Defeat audio cache : Yes
Make use of C2 pointers : No

Read offset correction : 6
Overread into Lead-In and Lead-Out : No
Fill up missing offset samples with silence : Yes
Delete leading and trailing silent blocks : No
Null samples used in CRC calculations : Yes
Used interface : Native Win32 interface for Win NT & 2000

Used output format : Internal WAV Routines
Sample format : 44.100 Hz; 16 Bit; Stereo

TOC of the extracted CD

Track | Start | Length | Start sector | End sector
---------------------------------------------------------
1 | 0:00.00 | 3:11.70 | 0 | 14394
2 | 3:11.70 | 8:37.27 | 14395 | 53196
3 | 11:49.22 | 6:47.66 | 53197 | 83787
4 | 18:37.13 | 5:35.32 | 83788 | 108944
5 | 24:12.45 | 0:55.70 | 108945 | 113139
6 | 25:08.40 | 5:31.42 | 113140 | 138006
7 | 30:40.07 | 7:09.18 | 138007 | 170199
8 | 37:49.25 | 8:00.07 | 170200 | 206206
9 | 45:49.32 | 2:46.65 | 206207 | 218721
10 | 48:36.22 | 6:19.41 | 218722 | 247187
11 | 54:55.63 | 4:25.23 | 247188 | 267085
12 | 59:21.11 | 6:31.50 | 267086 | 296460
13 | 65:52.61 | 3:33.10 | 296461 | 312445
14 | 69:25.71 | 2:33.40 | 312446 | 323960
15 | 71:59.36 | 6:15.58 | 323961 | 352143

Range status and errors

Selected range

Filename C:\Users\Lionua\Desktop\Kroda - Funf Jahre Kulturkampf.wav

Peak level 100.0 %
Range quality 100.0 %
Copy CRC B8FA7739
Copy OK

No errors occurred

AccurateRip summary

Track 1 not present in database
Track 2 not present in database
Track 3 not present in database
Track 4 not present in database
Track 5 not present in database
Track 6 not present in database
Track 7 not present in database
Track 8 not present in database
Track 9 not present in database
Track 10 not present in database
Track 11 not present in database
Track 12 not present in database
Track 13 not present in database
Track 14 not present in database
Track 15 not present in database

None of the tracks are present in the AccurateRip database

End of status report
fooCDtect
fooCDtect - foobar2000 + auCDtect, baralgin.

auCDtect: CD records authenticity detector, version 0.8.2
Copyright (c) 2004 Oleg Berngardt. All rights reserved.
Copyright (c) 2004 Alexander Djourik. All rights reserved.

mode: 0

===========================================
Track: 01 - Autumn… Twilight… Fog… (Intro)
Quality: Unknown
===========================================
Track: 02 - Falcon Among the Cliffs
Quality: CDDA 100%
===========================================
Track: 03 - Seid Runar Flammer
Quality: CDDA 100%
===========================================
Track: 04 - Ghosts of Birds
Quality: CDDA 100%
===========================================
Track: 05 - Native Land (Instrumental Intro) (Kampf version 2008)
Quality: CDDA 92%
===========================================
Track: 06 - Cry to Me, River... (Kampf version 2008)
Quality: CDDA 100%
===========================================
Track: 07 - Wind from the Mountains (Spring is Coming) (Kampf version 2008)
Quality: CDDA 100%
===========================================
Track: 08 - Where Brave Warriors Shalt Meet Again... (Kampf version 2008)
Quality: CDDA 100%
===========================================
Track: 09 - ...Funeral Pyres (Instrumental)
Quality: CDDA 99%
===========================================
Track: 10 - By the Hammer of Spirit and Identity of Blood... (Kampf version 200
Quality: CDDA 100%
===========================================
Track: 11 - Oj, na Gori... (Ukrainian traditional song)
Quality: CDDA 100%
===========================================
Track: 12 - Poppyflowers are Blossoming (Part II) (Kampf version 2008)
Quality: CDDA 100%
===========================================
Track: 13 - ...by the Last Autumnal Breath (Instrumental Outro) (Kampf version 2008)
Quality: CDDA 100%
===========================================
Track: 14 - Der Scharlachrote Tod (Absurd cover)
Quality: CDDA 100%
===========================================
Track: 15 - Wind of Changes (Sokyra Peruna cover)
Quality: CDDA 100%
===========================================
Тривалість: 01:18:15
Мова: українська, відсутня (5,9,13)
Аудіо-кодек: APE
Бітрейт: 1017 кб/с
Джерело: Lionua (MeTaLMaDNeSS.TeaM)
Додаткова інформація:
в роздачі присутні скани
DVD можна завантажити тут http://toloka.to/t10598


Якщо Ви справді бажаєте підтримати українське - після прослуховування, якщо музика вам сподобалась,
придбайте ліцензійний диск.
Підтримаймо вітчизняних виконавців!


Срібний реліз (на рейтинг впливає 50% завантаженого)
 Трекер:    Зареєстрований   

Завантажити / скачати українську музику



відео для новачків



 Зареєстрований:   2012-11-06 20:50
 Розмір:   598 MB 
 Оцінка музики:   7/10 (Голосів: 9)
   
Ваш часовий пояс: GMT + 2 Години

Нова тема   Відповісти