Завантажити та скачати торренти українською


Сусіди на стрьомі / The Watch (2012) 720p-mini

Нові коментарі

Нова тема   Відповісти
Автор Повідомлення
Drool 
VIP


З нами з: 17.04.10
Востаннє: 07.12.16
Повідомлень: 1266

2012-11-06 08:30  
Сусіди на стрьомі / The Watch (2012) 720p-mini


Жанр: фантастика, комедія
Країна: США



Кіностудія / кінокомпанія: Twentieth Century Fox
Режисер: Аківа Шаффер
Актори: Бен Стіллер, Вінс Вон, Джона Хілл, Річард Айоаде, Вілл Форте, Розмарі ДеВітт, Ніколас Браун, Ерін Моріарті, Даг Джонс

Сюжет:
Сюжет фільму розгортається навколо компанії сусідів які організували спецпідрозділ задля пітримання порядку та патрулювання свого району. Насправді всі ці альтруїстичні дії заплановані аби деколи втікати від сім'ї та розважатись у компанії друзів.Однак розваги закінчуються коли "патруль" дізнається про наміри знищення світ...


Тривалість: 01:41:56
Якість: 720p-mini
Відео:
кодек:
розмір кадру: 1280x544
бітрейт: 2362 кб/с

Аудіо:
мова: українська
переклад: професійний дубльований
кодек: 5.1
бітрейт: 448 кб/с

Джерело озвучення:
MediaInfo
General
Unique ID : 98009017790857378466164978642053838263 (0x49BBD9A7E8B9FE59455BEFE1006D35B7)
Complete name : /home/drool/Документы/Видео/The.Watch.2012.Ukr.Dub..720p.mkv
Format : Matroska
File size : 2.00 GiB
Duration : 1h 41mn
Overall bit rate : 2 811 Kbps
Movie name : Сусіди на стрьомі / The Watch (2012) 720p-mini | video by KINGDOM
Encoded date : UTC 2012-11-06 09:38:18
Writing application : mkvmerge v4.8.0 ('I Got The...') сборка от Aug 22 2011 13:16:28
Writing library : libebml v1.2.0 + libmatroska v1.1.0

Video
ID : 1
Format : AVC
Format/Info : Advanced Video Codec
Format profile : [email protected]
Format settings, CABAC : Yes
Format settings, ReFrames : 5 frames
Codec ID : V_MPEG4/ISO/AVC
Duration : 1h 41mn
Bit rate : 2 362 Kbps
Width : 1 280 pixels
Height : 544 pixels
Display aspect ratio : 2.35:1
Frame rate : 23.976 fps
Color space : YUV
Chroma subsampling : 4:2:0
Bit depth : 8 bits
Scan type : Progressive
Bits/(Pixel*Frame) : 0.141
Stream size : 1.64 GiB (82%)
Title : Сусіди на стрьомі (2012) 720p-mini | video by KINGDOM
Writing library : core 128 r2216 198a7ea
Encoding settings : cabac=1 / ref=5 / deblock=1:0:0 / analyse=0x3:0x113 / me=umh / subme=7 / psy=1 / psy_rd=1.00:0.00 / mixed_ref=1 / me_range=32 / chroma_me=1 / trellis=2 / 8x8dct=1 / cqm=0 / deadzone=21,11 / fast_pskip=0 / chroma_qp_offset=-2 / threads=12 / lookahead_threads=2 / sliced_threads=0 / slices=4 / nr=0 / decimate=1 / interlaced=0 / bluray_compat=0 / constrained_intra=0 / bframes=4 / b_pyramid=0 / b_adapt=2 / b_bias=0 / direct=1 / weightb=1 / open_gop=0 / weightp=2 / keyint=240 / keyint_min=23 / scenecut=40 / intra_refresh=0 / rc_lookahead=50 / rc=2pass / mbtree=1 / bitrate=2362 / ratetol=1.0 / qcomp=0.60 / qpmin=10 / qpmax=51 / qpstep=4 / cplxblur=20.0 / qblur=0.5 / vbv_maxrate=25000 / vbv_bufsize=25000 / nal_hrd=none / ip_ratio=1.40 / aq=1:1.00

Audio
ID : 2
Format : AC-3
Format/Info : Audio Coding 3
Mode extension : CM (complete main)
Codec ID : A_AC3
Duration : 1h 41mn
Bit rate mode : Constant
Bit rate : 448 Kbps
Channel(s) : 6 channels
Channel positions : Front: L C R, Side: L R, LFE
Sampling rate : 48.0 KHz
Bit depth : 16 bits
Compression mode : Lossy
Stream size : 327 MiB (16%)
Title : Рідна мова (дубляж)
Language : Ukrainian
Скріншоти







Походження: відеоряд взято з іноземного ріпу RG KINGDOM
Особиста оцінка: 0 - не дивився
Трейлер


 Трекер:    Зареєстрований   

Завантажити / скачати фільм українською



відео для новачків



 Зареєстрований:   2012-11-06 12:18
 Розмір:   2 GB 
 Оцінка фільму:   9.3/10 (Голосів: 21)
   
Інші релізи
Drool 
VIP


З нами з: 17.04.10
Востаннє: 07.12.16
Повідомлень: 1266

2012-11-06 08:30  
Незабаром буде.
bot 
робот


З нами з: 30.09.07
Востаннє: 26.05.05
Повідомлень: 16030

2012-11-06 08:34  
Тему перенесено з Фільми в HD до форуму Анонси релізів від Відео Гуртом


Drool

pyatachok 
Координатор літератури


З нами з: 30.01.10
Востаннє: 07.12.16
Повідомлень: 1337

2012-11-06 10:27  
Drool
Цей розділ для учасників відео гуртом.

Drool 
VIP


З нами з: 17.04.10
Востаннє: 07.12.16
Повідомлень: 1266

2012-11-06 10:35  
pyatachok написано:
Цей розділ для учасників відео гуртом.

Тю, мені спокійно дало перемістити сюди анонс. Ок, поверну в "Фільми в HD".

bot 
робот


З нами з: 30.09.07
Востаннє: 26.05.05
Повідомлень: 16030

2012-11-06 10:35  
Тему перенесено з Анонси релізів від Відео Гуртом до форуму Фільми в HD


Drool

Drool 
VIP


З нами з: 17.04.10
Востаннє: 07.12.16
Повідомлень: 1266

2012-11-06 12:19  
Готово!
_danilo_ 
Новенький


З нами з: 01.02.12
Востаннє: 06.05.16
Повідомлень: 3

2012-11-06 18:45  
Додайте швидкості
A_N_D_GF_SLON 
Новенький


З нами з: 25.05.12
Востаннє: 03.10.13
Повідомлень: 1

2012-11-06 19:23  
Дайте швидкості Будь ласка!!!!
vadim_doom 
Частий відвідувач


З нами з: 20.11.10
Востаннє: 07.12.16
Повідомлень: 35

2012-11-06 22:38  
Drool в тебе напевно інтернет через телефон мобільний! Швидкість просто вражає!
Drool 
VIP


З нами з: 17.04.10
Востаннє: 07.12.16
Повідомлень: 1266

2012-11-06 23:10  
vadim_doom написано:
Drool в тебе напевно інтернет через телефон мобільний! Швидкість просто вражає!

Не подобається швидкість - не качай, зачекай, коли розійдеться по іншим сідерам. З мене тягнуть понад півсотні лічерів, для укртелекому це тяжко, навіть в режимі суперсіда.

SerGiy177 
Новенький


З нами з: 06.06.12
Востаннє: 18.10.16
Повідомлень: 7

2012-11-09 13:26  
файний фільмєц ))
arnold116 
Новенький


З нами з: 17.10.12
Востаннє: 06.12.16
Повідомлень: 3

2012-11-15 22:41  
Нормальний фільмець, але я чекав трохи більшого. Якість відео дуже сподобалась. Ставлю 9 з 10
Arch0n 
Новенький


З нами з: 19.09.11
Востаннє: 05.11.16
Повідомлень: 3

2012-11-20 18:27  
фільм повне лайно. 2/10
Ganzh 
Частий відвідувач


З нами з: 20.05.08
Востаннє: 05.12.16
Повідомлень: 40

2012-12-04 09:57  
Що це було? Happy) Фільм ніби зняли по накурці, вписали все що давно хотіли

А переклад просто бомба!

Ваш часовий пояс: GMT + 2 Години

Нова тема   Відповісти