Завантажити та скачати торренти українською


Крода (Kroda) - Чорнотроп (Schwarzpfad) (2011) [FLAC] | Pagan/Folk Black Metal

Нові коментарі

Нова тема   Відповісти
Автор Повідомлення
ssTAss 
Модератор музики


З нами з: 05.07.08
Востаннє: 10.12.16
Повідомлень: 10950

2012-11-06 02:05  
Крода (Kroda) - Чорнотроп (Schwarzpfad) (2011) [FLAC] | Pagan/Folk Black Metal

Крода (Kroda) - Чорнотроп (Schwarzpfad) (2011) [FLAC] | Pagan/Folk Black Metal


Стиль: Pagan/Folk Black Metal
Країна, місто: Україна, Львів
Сайти: Офіційний сайт
Видавець: PURITY THROUGH FIRE
Виконавці:
Eisenslav – вокал, дримба, трембіта, ріг
Beralb – бас гітара
Serejen’ - гітара, акустична гітара
Olgerd - клавіші
Tur - барабани
Пісні:
    01 - Schwarzpfad I (First Snow)
    02 - Schwarzpfad II (Universal Provenances)
    03 - Schwarzpfad III (Forefather Of Hangmen)
    04 - Schwarzpfad IV (Heil Ragnarok!)
    05 - Schwarzpfad V (Cold Aurora)
log
Exact Audio Copy V1.0 beta 2 from 29. April 2011

EAC extraction logfile from 11. July 2011, 15:40

Kroda / Schwarzpfad

Used drive : TSSTcorpCDDVDW TS-L633J Adapter: 0 ID: 1

Read mode : Secure
Utilize accurate stream : Yes
Defeat audio cache : No
Make use of C2 pointers : Yes

Read offset correction : 6
Overread into Lead-In and Lead-Out : No
Fill up missing offset samples with silence : Yes
Delete leading and trailing silent blocks : No
Null samples used in CRC calculations : Yes
Used interface : Native Win32 interface for Win NT & 2000
Gap handling : Appended to previous track

Used output format : User Defined Encoder
Selected bitrate : 1024 kBit/s
Quality : High
Add ID3 tag : No
Command line compressor : C:\Program Files (x86)\Exact Audio Copy\FLAC\FLAC.EXE
Additional command line options : -8 -V -T "ARTIST=%artist%" -T "TITLE=%title%" -T "ALBUM=%albumtitle%" -T "DATE=%year%" -T "TRACKNUMBER=%tracknr%" -T "GENRE=%genre%" -T "COMMENT=%comment%" -T "BAND=%albuminterpret%" -T "COMPOSER=%composer%" %haslyrics%--ta

TOC of the extracted CD

Track | Start | Length | Start sector | End sector
---------------------------------------------------------
1 | 0:00.00 | 10:26.48 | 0 | 46997
2 | 10:26.48 | 11:29.12 | 46998 | 98684
3 | 21:55.60 | 10:15.52 | 98685 | 144861
4 | 32:11.37 | 11:07.04 | 144862 | 194890
5 | 43:18.41 | 7:23.51 | 194891 | 228166
6 | 53:14.17 | 19:58.47 | 239567 | 329463

Track 1

Filename C:\Users\Markus\Rips\Kroda\2011 - Schwarzpfad\01 - Schwarzpfad I (First Snow).wav

Pre-gap length 0:00:02.00

Peak level 97.7 %
Extraction speed 7.2 X
Track quality 100.0 %
Test CRC 2111CC04
Copy CRC 2111CC04
Track not present in AccurateRip database
Copy OK

Track 2

Filename C:\Users\Markus\Rips\Kroda\2011 - Schwarzpfad\02 - Schwarzpfad II (Universal Provenances).wav

Peak level 97.7 %
Extraction speed 8.3 X
Track quality 100.0 %
Test CRC 9D2BFD28
Copy CRC 9D2BFD28
Track not present in AccurateRip database
Copy OK

Track 3

Filename C:\Users\Markus\Rips\Kroda\2011 - Schwarzpfad\03 - Schwarzpfad III (Forefather Of Hangmen).wav

Peak level 97.7 %
Extraction speed 9.5 X
Track quality 100.0 %
Test CRC 71984292
Copy CRC 71984292
Track not present in AccurateRip database
Copy OK

Track 4

Filename C:\Users\Markus\Rips\Kroda\2011 - Schwarzpfad\04 - Schwarzpfad IV (Heil Ragnarok!).wav

Peak level 97.7 %
Extraction speed 10.4 X
Track quality 100.0 %
Test CRC 86AB62B0
Copy CRC 86AB62B0
Track not present in AccurateRip database
Copy OK

Track 5

Filename C:\Users\Markus\Rips\Kroda\2011 - Schwarzpfad\05 - Schwarzpfad V (Cold Aurora).wav

Peak level 84.9 %
Extraction speed 11.1 X
Track quality 100.0 %
Test CRC ED7916C2
Copy CRC ED7916C2
Track not present in AccurateRip database
Copy OK

None of the tracks are present in the AccurateRip database

No errors occurred

End of status report

==== Log checksum 71218DEE7539F1210ECEEBF2ABCD6B3770334BA6FF207CE75C708F6E62D11FE8 ====
audiochecker
AUDIOCHECKER v2.0 beta (build 457) - by Dester - [email protected]
~~~~~~~~~~~~~~~~~~~~~~~~~~~~~~~~~~
-=== DO NOT EDIT THIS FILE! ===-

Path: ...\2011 - Schwarzpfad

1 -=- 01 - Schwarzpfad I (First Snow).flac -=- CDDA (100%)
2 -=- 02 - Schwarzpfad II (Universal Provenances).flac -=- CDDA (100%)
3 -=- 03 - Schwarzpfad III (Forefather Of Hangmen).flac -=- CDDA (100%)
4 -=- 04 - Schwarzpfad IV (Heil Ragnarok!).flac -=- CDDA (100%)
5 -=- 05 - Schwarzpfad V (Cold Aurora).flac -=- CDDA (99%)

Summary 99,80% CDDA

52840852
Тривалість: 00:50:42
Мова: українська
Аудіо-кодек: FLAC
Бітрейт: 733-1037 кб/с
Джерело: інтернет
Додаткова інформація:
в роздачі присутні скани

Якщо Ви справді бажаєте підтримати українське - після прослуховування, якщо музика вам сподобалась,
придбайте ліцензійний диск.
Підтримаймо вітчизняних виконавців!


Срібний реліз (на рейтинг впливає 50% завантаженого)
 Трекер:    Зареєстрований   

Завантажити / скачати українську музику



відео для новачків



 Зареєстрований:   2012-11-06 02:05
 Розмір:   367 MB 
 Оцінка музики:   7/10 (Голосів: 9)
   
ssTAss 
Модератор музики


З нами з: 05.07.08
Востаннє: 10.12.16
Повідомлень: 10950

2012-11-06 02:06  
Volovik 
VIP


З нами з: 21.02.10
Востаннє: 10.12.16
Повідомлень: 341

2012-11-06 12:08  
часом не комуняка на гілляці висить?Happy
Ваш часовий пояс: GMT + 2 Години

Нова тема   Відповісти