Завантажити та скачати торренти українською


Нова Людина-Павук 3D / The Amazing Spider-Man 3D (2012) 1080p

Нові коментарі

Нова тема   Відповісти
Автор Повідомлення
seroga13 
VIP


З нами з: 22.06.09
Востаннє: 11.12.16
Повідомлень: 257

2012-11-04 19:26  
Нова Людина-Павук 3D / The Amazing Spider-Man 3D (2012) 1080p

Нова Людина-Павук 3D / The Amazing Spider-Man 3D (2012) 1080p


Жанр: бойовик, трилер, фантастика
Країна: США



Кіностудія / кінокомпанія: Columbia Pictures, Laura Ziskin Productions, Marvel Enterprises
Режисер: Марк Вебб (Marc Webb)
Актори: Ендрю Гарфілд (Andrew Garfield), Емма Стоун (Emma Stone), Ембет Девідц (Embeth Davidtz), Мартін Шин (Martin Sheen), Ріс Айфенс (Rhys Ifans), С. Томас

Сюжет:
Пітер Паркер змушений жити зі страшним секретом. Насправді він - легендарний герой Людина-Павук, що захищає мир і спокій жителів свого рідного міста, в якому, до речі, знову неспокійно. В результаті генетичного експерименту, який провалився, професор фізики доктор Курт Коннерс перетворюється в страшного Ящера і наганяє страх та паніку на мешканців округи. У той же час на волі виявляється відомий маніяк Клетус Кеседі, який вже підшукує собі нову жертву. Так що Пітеру Паркеру доведеться на якийсь час відкласти свої особисті проблеми в сторону і дозволити Людині-павуку знайти і знешкодити нових ворогів.


Тривалість: 02:16:17
Якість:
Відео:
кодек:
розмір кадру: 1920х1080
бітрейт: 5746 кб/с

Аудіо:
мова: українська
переклад: професійний дубльований
кодек: 5.1
бітрейт: 640 кб/с
MediaInfo

General
Unique ID : 240543516913929546436437763940337621134 (0xB4F6FF07F6DBD0BEBDB2D2E58FDC988E)
Complete name : G:\Downloads\TheAmazingSpider-Man(3D)2012.halfOU(Ash61)\TheAmazingSpider-Man(3D)2012.halfOU(Ash61).mkv
Format : Matroska
Format version : Version 2
File size : 6.23 GiB
Duration : 2h 16mn
Overall bit rate : 7 821 Kbps
Movie name : The Amazing Spider-Man (3D) 2012 (by Ash61)
Encoded date : UTC 2012-10-27 17:42:58
Writing application : mkvmerge v5.8.0 ('No Sleep / Pillow') built on Sep 2 2012 15:37:04
Writing library : libebml v1.2.3 + libmatroska v1.3.0

Video
ID : 1
Format : AVC
Format/Info : Advanced Video Codec
Format profile : [email protected]
Format settings, CABAC : Yes
Format settings, ReFrames : 4 frames
Codec ID : V_MPEG4/ISO/AVC
Duration : 2h 16mn
Bit rate : 5 746 Kbps
Width : 1 920 pixels
Height : 1 080 pixels
Display aspect ratio : 16:9
Frame rate mode : Constant
Frame rate : 23.976 fps
Color space : YUV
Chroma subsampling : 4:2:0
Bit depth : 8 bits
Scan type : Progressive
Bits/(Pixel*Frame) : 0.116
Stream size : 5.47 GiB (73%)
Title : by Ash61
Writing library : core 119 r2106 07efeb4
Encoding settings : cabac=1 / ref=4 / deblock=1:-3:-3 / analyse=0x3:0x113 / me=umh / subme=9 / psy=1 / psy_rd=1.00:0.15 / mixed_ref=1 / me_range=16 / chroma_me=1 / trellis=2 / 8x8dct=1 / cqm=0 / deadzone=21,11 / fast_pskip=1 / chroma_qp_offset=-3 / threads=12 / sliced_threads=0 / nr=0 / decimate=1 / interlaced=0 / bluray_compat=0 / constrained_intra=0 / bframes=6 / b_pyramid=2 / b_adapt=2 / b_bias=0 / direct=3 / weightb=1 / open_gop=0 / weightp=2 / keyint=250 / keyint_min=23 / scenecut=40 / intra_refresh=0 / rc_lookahead=60 / rc=crf / mbtree=1 / crf=16.0 / qcomp=0.70 / qpmin=0 / qpmax=69 / qpstep=4 / vbv_maxrate=40000 / vbv_bufsize=40000 / crf_max=0.0 / nal_hrd=none / frame-packing=4 / ip_ratio=1.40 / aq=1:0.70
Language : English
Default : Yes
Forced : No

Audio #1
ID : 1
Format : AC-3
Format/Info : Audio Coding 3
Mode extension : CM (complete main)
Format settings, Endianness : Big
Codec ID : A_AC3
Duration : 2h 16mn
Bit rate mode : Constant
Bit rate : 640 Kbps
Channel(s) : 6 channels
Channel positions : Front: L C R, Side: L R, LFE
Sampling rate : 48.0 KHz
Bit depth : 16 bits
Compression mode : Lossy
Stream size : 624 MiB (8%)
Title : Дубляж - BD EUR
Language : Ukrainian
Default : No
Forced : No
Скріншоти


Відео виконане в форматі 3D! Для перегляду потрібні спеціальні окуляри та стереоплеєр або телевізор з підтримкою технології 3D!

Інструкції щодо перегляду відео у форматі 3D


Джерело:
Особиста оцінка: 8 - мені сподобалося


 Трекер:    Зареєстрований   

Завантажити / скачати фільм українською



відео для новачків



 Зареєстрований:   2012-11-04 19:26
 Розмір:   6.23 GB 
 Оцінка фільму:   9.4/10 (Голосів: 16)
   
Bohdan237 
Відео Гуртом - фільмокрай
Відео Гуртом - фільмокрай


З нами з: 12.02.12
Востаннє: 11.12.16
Повідомлень: 383

2012-11-04 19:42  
3D-Video
Бажано написати BD3DRip так назив. 3д ріп + якість 1080p

ratbol 
Модератор HD


З нами з: 03.02.09
Востаннє: 10.12.16
Повідомлень: 1088

2012-11-05 08:00  
Додайте звіт медіаінфо.
slvhome 
Свій


З нами з: 03.04.08
Востаннє: 10.12.16
Повідомлень: 121

2013-05-06 08:14  
В порівнянні з попередніми частинами - просто шедевр. Можливо у мене таку враження із-за зміни актора на роль головного героя. В перших частинах то був якийсь сутуло-недороблений гавнюк.(вибачне за різькість, але він дійсно мене дратував)
osbourness 
Новенький


З нами з: 24.05.13
Востаннє: 18.11.13
Повідомлень: 3

2013-05-29 18:12  
якого дітька в мене 2 екрани???
kino. 
Модератор відео


З нами з: 27.06.10
Востаннє: 11.12.16
Повідомлень: 2900

2013-05-29 18:19  
osbourness написано:
якого дітька в мене 2 екрани???

Відео виконане в форматі 3D! Для перегляду потрібні спеціальні окуляри та стереоплеєр або телевізор з підтримкою технології 3D!
Інструкції щодо перегляду відео у форматі 3D

Ваш часовий пояс: GMT + 2 Години

Нова тема   Відповісти