Завантажити та скачати торренти українською


Доставка завтра авіапоштою / Next Day Air (2009) 720p Ukr/Eng

Нові коментарі

Нова тема   Відповісти
Автор Повідомлення
4erkov 
Відео Гуртом - запис з ТБ
Відео Гуртом - запис з ТБ


З нами з: 09.10.10
Востаннє: 08.12.16
Повідомлень: 1846

2012-11-04 12:54  
Доставка завтра авіапоштою / Next Day Air (2009) 720p Ukr/Eng

Доставка завтра авіапоштою / Next Day Air (2009) 720p Ukr/Eng

Жанр: екшн, комедія, кримінальний
Країна: США

Кіностудія / кінокомпанія: A-Mark Entertainment, Melee Entertainment
Режисер: Бенні Бум / Benny Boom
Актори: Дональд Фейсон / Donald Faison, Майк Еппс / Mike Epps, Bуд Харріс / Wood Harris, Омарі Хардвік / Omari Hardwick, Еміліо Рівера / Emilio Rivera, Даріус МакКрері / Darius McCrary, Ясмін Деліз / Yasmin Deliz, Малік Барнхардт / Malik Barnhardt
Сюжет:
Коли водій поштової служби доставляє не за тією адресою посилку, що містить заховані брикети кокаїну, це стає початком цілого ланцюжка неймовірних подій.
Між собою стикаються наркодилер, який відправив вантаж, грізний клієнт, який так і не дочекався його і випадкові одержувачі, які намагаються продати ці наркотики. Час закінчується і кожен з них намагається накласти лапу на посилку, яка була відправлена авіапоштою з доставкою на наступний день.

Тривалість: 01:24:18
Якість:
Відео:
кодек:
розмір кадру: 1280 х 688
бітрейт: 5919 кб/с

Аудіо:
мова: українська
переклад: багатоголосий закадровий
кодек: 2.0
бітрейт: 192 кб/с

Аудіо # 2:
мова: англійська
переклад: оригінал
кодек: 5.1
бітрейт: 1510 кб/с
Фільм перекладено та озвучено на замовлення Aurora Distribution. Джерело: DVD.
Скріншоти





Media-Info
Код:
General
Unique ID                                : 181804204104113469143901032418065707175 (0x88C637505C643F55B3660C1686E6F0A7)
Format                                   : Matroska
Format version                           : Version 2
File size                                : 4.49 GiB
Duration                                 : 1h 24mn
Overall bit rate                         : 7 619 Kbps
Movie name                               : Next Day Air (2009) ukr.eng [Hurtom.com]
Encoded date                             : UTC 2012-11-03 20:17:10
Writing application                      : mkvmerge v5.8.0 ('No Sleep / Pillow') built on Sep  2 2012 15:37:04
Writing library                          : libebml v1.2.3 + libmatroska v1.3.0

Video
ID                                       : 1
Format                                   : AVC
Format/Info                              : Advanced Video Codec
Format profile                           : [email protected]
Format settings, CABAC                   : Yes
Format settings, ReFrames                : 5 frames
Codec ID                                 : V_MPEG4/ISO/AVC
Duration                                 : 1h 24mn
Bit rate                                 : 5 919 Kbps
Width                                    : 1 280 pixels
Height                                   : 688 pixels
Display aspect ratio                     : 1.85:1
Frame rate mode                          : Constant
Frame rate                               : 23.976 fps
Color space                              : YUV
Chroma subsampling                       : 4:2:0
Bit depth                                : 8 bits
Scan type                                : Progressive
Bits/(Pixel*Frame)                       : 0.280
Stream size                              : 3.40 GiB (76%)
Title                                    :
Writing library                          : core 104 r1675 2484aa0
Encoding settings                        : cabac=1 / ref=5 / deblock=1:0:0 / analyse=0x3:0x133 / me=umh / subme=7 / psy=1 / psy_rd=1.00:0.15 / mixed_ref=1 / me_range=16 / chroma_me=1 / trellis=1 / 8x8dct=1 / cqm=0 / deadzone=21,11 / fast_pskip=0 / chroma_qp_offset=-3 / threads=12 / sliced_threads=0 / nr=0 / decimate=1 / interlaced=0 / constrained_intra=0 / bframes=3 / b_pyramid=2 / b_adapt=2 / b_bias=0 / direct=1 / weightb=1 / open_gop=0 / weightp=2 / keyint=250 / keyint_min=23 / scenecut=40 / intra_refresh=0 / rc_lookahead=40 / rc=2pass / mbtree=1 / bitrate=5919 / ratetol=1.0 / qcomp=0.60 / qpmin=10 / qpmax=51 / qpstep=4 / cplxblur=20.0 / qblur=0.5 / ip_ratio=1.40 / aq=1:1.00
Language                                 : English
Default                                  : Yes
Forced                                   : No

Audio #1
ID                                       : 2
Format                                   : AC-3
Format/Info                              : Audio Coding 3
Mode extension                           : CM (complete main)
Format settings, Endianness              : Big
Codec ID                                 : A_AC3
Duration                                 : 1h 24mn
Bit rate mode                            : Constant
Bit rate                                 : 192 Kbps
Channel(s)                               : 2 channels
Channel positions                        : Front: L R
Sampling rate                            : 48.0 KHz
Bit depth                                : 16 bits
Compression mode                         : Lossy
Stream size                              : 116 MiB (3%)
Title                                    : Aurora
Language                                 : Ukrainian
Default                                  : Yes
Forced                                   : No

Audio #2
ID                                       : 3
Format                                   :
Format/Info                              : Digital Theater Systems
Mode                                     : 16
Format settings, Endianness              : Big
Codec ID                                 : A_DTS
Duration                                 : 1h 24mn
Bit rate mode                            : Constant
Bit rate                                 : 1 509 Kbps
Channel(s)                               : 6 channels
Channel positions                        : Front: L C R, Side: L R, LFE
Sampling rate                            : 48.0 KHz
Bit depth                                : 16 bits
Compression mode                         : Lossy
Stream size                              : 910 MiB (20%)
Title                                    : Original
Language                                 : English
Default                                  : No
Forced                                   : No

Джерело: Висловлюю подяку п. Tarasyk за надану доріжку. Зведення - 4erkov.
Особиста оцінка: 0 - не дивився


 Трекер:    Зареєстрований   

Завантажити / скачати фільм українською



відео для новачків



 Зареєстрований:   2012-11-04 12:54
 Розмір:   4.49 GB 
 Оцінка фільму:   7/10 (Голосів: 3)
   
Інші релізи
Ваш часовий пояс: GMT + 2 Години

Нова тема   Відповісти