Завантажити та скачати торренти українською


Безпека не гарантується / Safety Not Guaranteed (2012) 720p Eng | Sub Ukr/Eng

Нові коментарі

Нова тема   Відповісти
Останній раз роздавалося Buten (2016-12-02)
Автор Повідомлення
antusyrzhuk 
Свій


З нами з: 09.06.09
Востаннє: 19.11.16
Повідомлень: 145

2012-11-03 21:24  
Безпека не гарантується / Safety Not Guaranteed (2012) 720p Eng | Sub Ukr/Eng

Безпека не гарантується / Safety Not Guaranteed (2012) 720p Eng | Sub Ukr/Eng


Жанр: комедія
Країна: США



Кіностудія / кінокомпанія: Big Beach Films, Duplass Brothers Productions
Режисер: Колін Треворроу (Colin Trevorrow)
Актори: Обрі Плаза (Aubrey Plaza), Безіл Гарріс (Basil Harris), Мері Лінн Реджскеб (Mary Lynn Rajskub), Джейк Джонсон (Jake Johnson), Каран Соні (Karan Soni), Марк Даплес (Mark Duplass), Дженіка Бержер (Jenica Bergere) та ін.

Сюжет:
Деріес - молода практикантка у журналі "Сіетл" , яка береться писати статтю про людину, що написала оголошення, в якому шукає партнера для подорожі в часі. Разом із Джефом, професійним журналістом, й Арно, ще одним практикантом, вона вирушає до приморського міста. Поки Джеф намагається здибати дівчину, яку любив ще у школі, а Арно пробує здобути певний життєвий досвід, Деріес проводить час із Кеннетом, чоловіком, який вірить у те, що він збудував машину часу. Чим ближче вони знайомляться, чим краще розуміють одне одного, тим ясніше стає те, що Кеннет не такий вже і божевільний.


Тривалість: 01:25:47
Якість:
Відео: (автор ріпу - sparks)
кодек:
розмір кадру: 1280 х 544
бітрейт: 5780 кб/с

Аудіо:
мова: англійська
переклад: оригінал
кодек: 5.1
бітрейт: 1509 кб/с

Субтитри:
мова: українська
тип: програмні (м'які)
формат: *.srt
переклад з англійської: antusyrzhuk

Субтитри:
мова: англійська
тип: програмні (м'які)
формат: *.srt

Субтитри: (для людей із вадами слуху)
мова: англійська
тип: програмні (м'які)
формат: *.srt
MediaInfo
Format : Matroska
Format version : Version 2
File size : 4.37 GiB
Duration : 1h 25mn
Overall bit rate : 7 290 Kbps
Movie name : Safety Not Guaranteed*2012 /antusyrzhuk
Encoded date : UTC 2012-11-03 18:39:54
Writing application : mkvmerge v5.8.0 ('No Sleep / Pillow') built on Sep 2 2012 15:37:04
Writing library : libebml v1.2.3 + libmatroska v1.3.0

Video
ID : 1
Format : AVC
Format/Info : Advanced Video Codec
Format profile : [email protected]
Format settings, CABAC : Yes
Format settings, ReFrames : 5 frames
Codec ID : V_MPEG4/ISO/AVC
Duration : 1h 25mn
Bit rate : 5 780 Kbps
Width : 1 280 pixels
Height : 544 pixels
Display aspect ratio : 2.35:1
Frame rate mode : Constant
Frame rate : 23.976 fps
Color space : YUV
Chroma subsampling : 4:2:0
Bit depth : 8 bits
Scan type : Progressive
Bits/(Pixel*Frame) : 0.346
Stream size : 3.38 GiB (77%)
Writing library : core 128 r2216 198a7ea
Encoding settings : cabac=1 / ref=5 / deblock=1:0:0 / analyse=0x3:0x133 / me=umh / subme=7 / psy=1 / psy_rd=1.00:0.00 / mixed_ref=1 / me_range=16 / chroma_me=1 / trellis=1 / 8x8dct=1 / cqm=0 / deadzone=21,11 / fast_pskip=0 / chroma_qp_offset=-2 / threads=12 / lookahead_threads=2 / sliced_threads=0 / nr=0 / decimate=1 / interlaced=0 / bluray_compat=0 / constrained_intra=0 / bframes=3 / b_pyramid=2 / b_adapt=1 / b_bias=0 / direct=1 / weightb=1 / open_gop=0 / weightp=2 / keyint=250 / keyint_min=23 / scenecut=40 / intra_refresh=0 / rc_lookahead=40 / rc=2pass / mbtree=1 / bitrate=5780 / ratetol=1.0 / qcomp=0.60 / qpmin=0 / qpmax=69 / qpstep=4 / cplxblur=20.0 / qblur=0.5 / ip_ratio=1.40 / aq=1:1.00
Language : English
Default : Yes
Forced : No

Audio
ID : 2
Format :
Format/Info : Digital Theater Systems
Mode : 16
Format settings, Endianness : Big
Codec ID : A_DTS
Duration : 1h 25mn
Bit rate mode : Constant
Bit rate : 1 509 Kbps
Channel(s) : 6 channels
Channel positions : Front: L C R, Side: L R, LFE
Sampling rate : 48.0 KHz
Bit depth : 24 bits
Compression mode : Lossy
Stream size : 926 MiB (21%)
Language : English
Default : Yes
Forced : No

Text #1
ID : 3
Format : UTF-8
Codec ID : S_TEXT/UTF8
Codec ID/Info : UTF-8 Plain Text
Language : Ukrainian
Default : Yes
Forced : No

Text #2
ID : 4
Format : UTF-8
Codec ID : S_TEXT/UTF8
Codec ID/Info : UTF-8 Plain Text
Language : English
Default : No
Forced : No

Text #3
ID : 5
Format : UTF-8
Codec ID : S_TEXT/UTF8
Codec ID/Info : UTF-8 Plain Text
Language : English
Default : No
Forced : No
Скріншоти







Джерело: PublicHD
Особиста оцінка: 10 - без зайвих вагань рекомендую всім!


Золотий реліз (завантажене не впливає на рейтинг)
 Трекер:    Зареєстрований   

Завантажити / скачати фільм українською



відео для новачків



 Зареєстрований:   2012-11-03 21:24
 Розмір:   4.37 GB 
 Оцінка фільму:   7.1/10 (Голосів: 20)
   
waldi-hurtom 
VIP


З нами з: 07.10.12
Востаннє: 03.12.16
Повідомлень: 611

2012-12-14 20:25  
Цілком пристойний молодіжний фільм, хоча міжнародна оцінка трохи завищена. Один раз можна подивитись.
okzdp 
Поважний учасник


З нами з: 27.05.09
Востаннє: 04.12.16
Повідомлень: 209

2012-12-23 13:07  
Мені сподобався
Ваш часовий пояс: GMT + 2 Години

Нова тема   Відповісти