Завантажити та скачати торренти українською


Джефф, який живе вдома / Jeff, Who Lives at Home (2011) AVC Eng | sub Ukr/Multi

Нові коментарі

Нова тема   Відповісти
Останній раз роздавалося akrysan (2016-12-04)
Автор Повідомлення
DеLight 
Відео Гуртом - фільмокрай
Відео Гуртом - фільмокрай


З нами з: 24.08.11
Востаннє: 17.11.16
Повідомлень: 664

2012-11-03 14:03  
Джефф, який живе вдома / Jeff, Who Lives at Home (2011) AVC Eng | sub Ukr/Multi

Джефф, який живе вдома / Jeff, Who Lives at Home (2011) AVC Eng | sub Ukr/Multi

«Перший крок у пошуку своєї долі - покинути дім твоєї матері»


Жанр: драма, комедія
Країна: США



Кіностудія / кінокомпанія: Indian Paintbrush, Jeff Brothers Productions, Mr. Mudd, Right of Way Films



Джей Дюпласс / Jay Duplass, Марк Дюпласс / Mark Duplass

Джейсон Сігел / Jason Segel, Ед Хелмс / Ed Helms, С'юзан Сарандон / Susan Sarandon, Джуді Грір / Judy Greer, Рей Довн Чонг / Rae Dawn Chong, Стів Зіссіс / Steve Zissis, Еван Росс / Evan Ross, Бенджамін Брант Бікхем / Benjamin Brant Bickham, Лі Нгуєн / Lee Nguyen, Тім Дж. Сміт / Tim J. Smith, Ернест Джеймс / Ernest James, Девід Кенсі / David Kency, Район Хілл / Raion Hill, Зак Шіно / Zac Cino, Ленс Е. Ніколс / Lance E. Nichols та інші

Фільм є хронікою одного дня, головні герої якого два брати. Джефф - тридцятирічної лузер, який до цих пір живе в будинку своєї матері і виходити на вулицю не має бажання, оскільки зациклився на пошуку знаків долі, переглянувши фільм "Знаки" разів сто. Пет - його повна протилежність, упевнений і владний, але страждає від невдалого одруження. Одного разу, добровільний в'язень замкнутого простору Джефф залишає будинок через доручення матері. І тоді, він раптово виявляє, що коло розімкнуло, а Всесвіт відповідає на всі його приховані думки...



Тривалість: 01:23:02
Якість: AVC

Відео:
кодек:
розмір кадру: 1152 x 648
бітрейт: 2 989 кб/с

Аудіо:
мова: англійська
переклад: оригінал
кодек: 5.1
бітрейт: 384 кб/с

Субтитри #1:
мова: українська
тип: програмні (м'які)
формат: *.srt

Субтитри #2-4:
мова: англійська, французька, іспанська
тип: програмні (м'які)
формат: *.srt


MediaInfo

Код:
General
Unique ID                      : 193674089505174575141589581066403867250 (0x91B445D909DC36B0BD8820BABEC06A72)
Complete name                  : D:\Torrents\Jeff, Who Lives at Home (2011) AVC [Eng, sub Ukr, Multi] [Hurtom & RuTracker].mkv
Format                         : Matroska
Format version                 : Version 2
File size                      : 1.95 GiB
Duration                       : 1h 23mn
Overall bit rate               : 3 371 Kbps
Movie name                     : Jeff, Who Lives at Home (2011) AVC [Eng, sub Ukr/Multi] [Hurtom & RuTracker] by Delight
Encoded date                   : UTC 2012-11-03 10:46:23
Writing application            : mkvmerge v5.8.0 ('No Sleep / Pillow') built on Sep  2 2012 15:37:04
Writing library                : libebml v1.2.3 + libmatroska v1.3.0

Video
ID                             : 1
Format                         : AVC
Format/Info                    : Advanced Video Codec
Format profile                 : [email protected]
Format settings, CABAC         : Yes
Format settings, ReFrames      : 9 frames
Codec ID                       : V_MPEG4/ISO/AVC
Duration                       : 1h 23mn
Bit rate                       : 2 989 Kbps
Width                          : 1 152 pixels
Height                         : 648 pixels
Display aspect ratio           : 16:9
Frame rate mode                : Constant
Frame rate                     : 23.976 fps
Color space                    : YUV
Chroma subsampling             : 4:2:0
Bit depth                      : 8 bits
Scan type                      : Progressive
Bits/(Pixel*Frame)             : 0.167
Stream size                    : 1.69 GiB (87%)
Title                          : Jeff, Who Lives at Home (2011) AVC
Writing library                : core 125
Encoding settings              : cabac=1 / ref=9 / deblock=1:-3:-3 / analyse=0x3:0x133 / me=umh / subme=11 / psy=1 / psy_rd=1.00:0.00 / mixed_ref=1 / me_range=32 / chroma_me=1 / trellis=2 / 8x8dct=1 / cqm=0 / deadzone=21,11 / fast_pskip=0 / chroma_qp_offset=-4 / threads=6 / lookahead_threads=1 / sliced_threads=0 / nr=0 / decimate=1 / interlaced=0 / bluray_compat=0 / constrained_intra=0 / bframes=6 / b_pyramid=2 / b_adapt=2 / b_bias=0 / direct=3 / weightb=1 / open_gop=0 / weightp=2 / keyint=250 / keyint_min=23 / scenecut=40 / intra_refresh=0 / rc_lookahead=60 / rc=2pass / mbtree=1 / bitrate=2989 / ratetol=1.0 / qcomp=0.70 / qpmin=0 / qpmax=69 / qpstep=4 / cplxblur=20.0 / qblur=0.5 / ip_ratio=1.40 / aq=1:1.00
Language                       : English
Default                        : Yes
Forced                         : No

Audio
ID                             : 2
Format                         : AC-3
Format/Info                    : Audio Coding 3
Mode extension                 : CM (complete main)
Format settings, Endianness    : Big
Codec ID                       : A_AC3
Duration                       : 1h 23mn
Bit rate mode                  : Constant
Bit rate                       : 384 Kbps
Channel(s)                     : 6 channels
Channel positions              : Front: L C R, Side: L R, LFE
Sampling rate                  : 48.0 KHz
Bit depth                      : 16 bits
Compression mode               : Lossy
Stream size                    : 228 MiB (11%)
Title                          : 5.1; 384 kbps; original
Language                       : English
Default                        : Yes
Forced                         : No

Text #1
ID                             : 3
Format                         : UTF-8
Codec ID                       : S_TEXT/UTF8
Codec ID/Info                  : UTF-8 Plain Text
Title                          : full
Language                       : Ukrainian
Default                        : Yes
Forced                         : No

Text #2
ID                             : 4
Format                         : UTF-8
Codec ID                       : S_TEXT/UTF8
Codec ID/Info                  : UTF-8 Plain Text
Title                          : full
Language                       : English
Default                        : No
Forced                         : No

Text #3
ID                             : 5
Format                         : UTF-8
Codec ID                       : S_TEXT/UTF8
Codec ID/Info                  : UTF-8 Plain Text
Title                          : full
Language                       : French
Default                        : No
Forced                         : No

Text #4
ID                             : 6
Format                         : UTF-8
Codec ID                       : S_TEXT/UTF8
Codec ID/Info                  : UTF-8 Plain Text
Title                          : full
Language                       : Spanish
Default                        : No
Forced                         : No

Світлини











Джерело: &
Особиста оцінка: 8 - простий, трішки дивакуватий, але все ж таки з хорошим підтекстом, це відрізняє його від інших фільмів...


 Трекер:    Зареєстрований   

Завантажити / скачати фільм українською



відео для новачків



 Зареєстрований:   2012-11-03 14:03
 Розмір:   1.95 GB 
 Оцінка фільму:   9/10 (Голосів: 9)
   
nazic 
Новенький


З нами з: 26.02.09
Востаннє: 07.12.16
Повідомлень: 13

2012-11-03 20:14  
Словосполучення фільм являє собою - калька з російської. Виправте будь ласка на фільм є або стрічка є хронікою дня і так далі.
DеLight 
Відео Гуртом - фільмокрай
Відео Гуртом - фільмокрай


З нами з: 24.08.11
Востаннє: 17.11.16
Повідомлень: 664

2012-11-03 20:56  
nazic
Підправив, дякую за пораду.

Ваш часовий пояс: GMT + 2 Години

Нова тема   Відповісти