Завантажити та скачати торренти українською


Кризаліс / Chrysalis (2007) 720р Ukr/Fre

Нові коментарі

Нова тема   Відповісти
Автор Повідомлення
pyatachok 
Координатор літератури


З нами з: 30.01.10
Востаннє: 09.12.16
Повідомлень: 1337

2012-11-03 12:58  
Кризаліс / Chrysalis (2007) 720р Ukr/Fre

Кризаліс / Chrysalis (2007) 720р Ukr/Fre
Альтернативні постери:

Жанр: фантастика, трилер, кримінал
Країна: Франція



Кіностудія / кінокомпанія: Gaumont
Режисер: Жюльен Леклерк / Julien Leclercq
Актори: Альберт Дюпонтель, Марі Гійярд, Марта Келлер, Мелані Тьєррі, Клод Перpон, Патрік Бошо, Сиріл Лекомт та інші.

Сюжет:
Париж, 2020 рік. Хірург, що спеціалізується на нових технологіях і її дочка потрапляють в жахливу автомобільну аварію. Лікар рятує життя дочки, використовуючи свої розробки і впливаючи на її мрії і спогади. В цей же час поліцейський Хофман в результаті бандитської перестрілки, втрачає свого напарника і дружину. Хофман жадає помсти і тому, як тільки отримує нового напарника, починає полювання за злочинцем, що убив найдорожчих йому людей. Розслідування несподівано приводить Хофмана до хірурга, її клініка загадкова розробками і дослідженнями, що проводяться там.


Тривалість: 01:33:58
Якість: 720р
Відео:
кодек:
розмір кадру: 1280x544
бітрейт: 5 150 кб/с

Аудіо # 1:
мова: українська
переклад: багатоголосий закадровий
кодек: 5.1
бітрейт: 640 кб/с
Про українську доріжку
Джерело звуку диск, тому якість хороша. З цією озвучкою фільм транслюється/транслюватиметься на телеканалах.
Аудіо # 2:
мова: французька
переклад: оригінал
кодек: 5.1
бітрейт: 755 кб/с


Фільм перекладено та озвучено Так Треба Продакшн на замовлення Aurora Distribution



Скріншоти

Media Info
Код:
General
Unique ID                                : 191948750283184460609578737256405601069 (0x9067FC0E7890AA9FB621D7C4D6BB0B2D)
Complete name                            : D:\Hurtom\.....\Chrysalis (2007) [Ukr, Fre] 720p [Hurtom].mkv
Format                                   : Matroska
Format version                           : Version 2
File size                                : 4.30 GiB
Duration                                 : 1h 33mn
Overall bit rate                         : 6 548 Kbps
Movie name                               : Chrysalis [f0g]
Encoded date                             : UTC 2012-11-03 10:14:08
Writing application                      : mkvmerge v5.7.0 ('The Whirlwind') built on Jul  8 2012 20:08:51
Writing library                          : libebml v1.2.3 + libmatroska v1.3.0
Attachment                               : Yes / Yes / Yes / Yes / Yes / Yes / Yes

Video
ID                                       : 1
Format                                   : AVC
Format/Info                              : Advanced Video Codec
Format profile                           : [email protected]
Format settings, CABAC                   : Yes
Format settings, ReFrames                : 10 frames
Codec ID                                 : V_MPEG4/ISO/AVC
Duration                                 : 1h 33mn
Bit rate                                 : 5 150 Kbps
Width                                    : 1 280 pixels
Height                                   : 544 pixels
Display aspect ratio                     : 2.35:1
Frame rate mode                          : Constant
Frame rate                               : 23.976 fps
Color space                              : YUV
Chroma subsampling                       : 4:2:0
Bit depth                                : 8 bits
Scan type                                : Progressive
Bits/(Pixel*Frame)                       : 0.308
Stream size                              : 3.30 GiB (77%)
Writing library                          : core 61 r965M 3d2983d
Encoding settings                        : cabac=1 / ref=10 / deblock=1:-3:-3 / analyse=0x3:0x133 / me=umh / subme=6 / psy_rd=0.9:0.8 / brdo=1 / mixed_ref=1 / me_range=16 / chroma_me=1 / trellis=2 / 8x8dct=1 / cqm=0 / deadzone=21,11 / chroma_qp_offset=-4 / threads=6 / nr=0 / decimate=1 / mbaff=0 / bframes=5 / b_pyramid=1 / b_adapt=0 / b_bias=0 / direct=1 / wpredb=1 / bime=1 / keyint=250 / keyint_min=25 / scenecut=40(pre) / rc=2pass / bitrate=5150 / ratetol=1.0 / qcomp=1.00 / qpmin=8 / qpmax=51 / qpstep=4 / cplxblur=20.0 / qblur=0.5 / ip_ratio=1.40 / pb_ratio=1.30 / aq=2:0.70
Language                                 : English
Default                                  : Yes
Forced                                   : No

Audio #1
ID                                       : 2
Format                                   : AC-3
Format/Info                              : Audio Coding 3
Mode extension                           : CM (complete main)
Format settings, Endianness              : Big
Codec ID                                 : A_AC3
Duration                                 : 1h 33mn
Bit rate mode                            : Constant
Bit rate                                 : 640 Kbps
Channel(s)                               : 6 channels
Channel positions                        : Front: L C R, Side: L R, LFE
Sampling rate                            : 48.0 KHz
Bit depth                                : 16 bits
Compression mode                         : Lossy
Stream size                              : 430 MiB (10%)
Title                                    : 640kbps
Language                                 : Ukrainian
Default                                  : Yes
Forced                                   : No

Audio #2
ID                                       : 3
Format                                   :
Format/Info                              : Digital Theater Systems
Codec ID                                 : A_DTS
Duration                                 : 1h 33mn
Bit rate mode                            : Constant
Bit rate                                 : 755 Kbps
Channel(s)                               : 6 channels
Channel positions                        : Front: L C R, Side: L R, LFE
Sampling rate                            : 48.0 KHz
Bit depth                                : 24 bits
Compression mode                         : Lossy
Stream size                              : 507 MiB (12%)
Title                                    : @ 768kbps
Language                                 : French
Default                                  : No
Forced                                   : No



За надану доріжку подяка п. Tarasyk
Зведення
- pyatachok



Джерело:


 Трекер:    Зареєстрований   

Завантажити / скачати фільм українською



відео для новачків



 Зареєстрований:   2012-11-03 12:58
 Розмір:   4.3 GB 
 Оцінка фільму:   9/10 (Голосів: 6)
   
Інші релізи
   Кризаліс / Chrysalis (2007) Ukr/Frе pyatachok  2 / 0   2.07 GB   2012-11-03 01:02 
pyatachok 
Координатор літератури


З нами з: 30.01.10
Востаннє: 09.12.16
Повідомлень: 1337

2012-11-03 13:05  
1080p не зроблю, щось нет тупить, зараза. Нормально навіть цей роздати не можу...(
taras1994 
Почесний оцифрувальник літератури


З нами з: 23.03.12
Востаннє: 30.11.16
Повідомлень: 5096

2012-11-03 22:41  
Класний фільм, ідея передачі пам'яті мене здивувала. Але не стільки сама ідея, а висновок: Тобто свідомість залишається в тому тілі, в якому вона народилася. Спогади ще не роблять нас нами. А й дійсно спогади впливають на нас? З іншого боку втрата цих спогадів є дуже болючою. Ось така дилема. В передачі спогадів є небезпека, для прикладу старий диктатор передасть ненависть до свого народу молодому наступнику.

Додано через 2 хвилини 7 секунд:

Лише придивившись до обкладинки можна зрозуміти, що це краєвид Парижу. А в самому фільмі переважають сірі кольори.

Krutyvuss 
Свій


З нами з: 01.08.10
Востаннє: 08.12.16
Повідомлень: 72

2013-06-10 14:25  
Щось в цьому фільмі є. Дивитись можна.
Ваш часовий пояс: GMT + 2 Години

Нова тема   Відповісти