Завантажити та скачати торренти українською


Інший світ: Квадрологія / Underworld: Quadrology (2003-2012) AVC

Нові коментарі

Нова тема   Відповісти
Автор Повідомлення
DеLight 
Відео Гуртом - фільмокрай
Відео Гуртом - фільмокрай


З нами з: 24.08.11
Востаннє: 17.11.16
Повідомлень: 664

2012-11-02 16:49  
Інший світ: Квадрологія / Underworld: Quadrology (2003/2006/2009/2012) AVC

Інший світ: Квадрологія / Underworld: Quadrology (2003-2012) AVC



Інший світ (Розширена версія) / Underworld (Extended Cut) (2003) AVC Ukr | sub Eng

Інший світ: Квадрологія / Underworld: Quadrology (2003-2012) AVC

«Під час фінальної битви вампірів і перевертнів на чиєму боці будете Ви?»


Жанр: екшн, фентезі, трилер
Країна: США, Німеччина, Велика Британія, Угорщина



Кіностудія / кінокомпанія: Lakeshore Entertainment, Laurinfilm Ltd., Subterranean Productions LLC, Subterranean Productions UK Ltd., Underworld Produktions GmbH
Режисер: Лен Уайзмен
Актори: Кейт Бекінсейл, Скот Спідмен, Майкл Шин, Шейн Броллі, Біл Найї, Ервин Ледер, Софі Майлс, Роббі Гі, Вентуорф Міллер, Кевін Грев'є, Зіта Горог, Деніс Дж. Козелу, Скот МакЕлрой, Тод Шнайдер, Сандор Болла, Хенк Амос, Жужа Барсі, Річард Цетрон, Майк Мукатіс, Сандор Борос, Янос Ола
Сюжет:
У світі багато століть йде війна між двома расами безсмертних: вампірами і перевертнями-"ліканів". І для тих, і для інших людство - усього лише стадо, яким вони харчуються. Навіть серед безсмертних мало таких, хто пам'ятає, з чого почалася ворожнеча між ними. Ще менше тих, хто знає, що і вампіри, і перевертні ведуть свій рід від однієї людини. І ті, хто знає про це, своє знання ретельно приховує. У секретних лабораторіях обидва роду створили для війни ефективне надсучасне зброю.


Цікава інформація:

* За первинною задумом ця історія повинна була стати своєрідною інтерпретацією класичної історії кохання Ромео і Джульєтти у світі перевертнів і вампірів.
* На підготовку до зйомок акторам виділили всього два тижні. До комп'ютерної графіку довелося вдатися лише в деяких сценах. Для того, щоб уникнути використання CGI-ефектів, в знімальних павільйонах застосовувалися різні технічні пристрої, що дозволяють створити ефект нереальності того, що відбувається.
* Незадовго до прем'єри в США президент компанії Screen Gems дав добро не тільки на зйомки сиквела, а й пріквела. У Канаді фільм стартував трохи раніше, і збори за перші дні показу були набагато вище запланованих.
* Сцена з нападом собак знімалася в 2 етапи. Спочатку було відзнято собача зграя, що біжить з розвеселим тявканье, а трохи пізніше в кадр додали біжить Скотта Спідмана.
* Ім'я головної героїні - Селена - в грецькій міфології символізувало Місяць. Жоден з героїв жодного разу не згадує назву міста, в якому відбувається дія. Тим не менш, на комп'ютері Селени ми можемо розгледіти, що цим містом є Будапешт.
* На роль, що дісталася Скотту Спідману, проходили кастинг Майкл Шин і Уентворт Міллер. Останньому все ж таки дісталася епізодична роль у картині, на зйомки якої пішло всього 2 дні.
* Ім'я Крейвена по-англійському (Kraven) звучить також як «craven», що означає «боягуз».
* За Майклом в погоню кидається собача зграя. Єдині пси, яких вдалося роздобути для зйомок, були настільки доброзичливі, що на їх радісний гавкіт довелося накладати звуки справжнього звіриного виття. Але з однією впоратися не вдалося - видно, що, переслідуючи Майкла, пси радісно виляють хвостами.
* Майкл Корвін, герой Скотта Спідмана, отримав своє ім'я на честь Еша Корвіна, героя Венсана Переса в «Вороні: Місто ангелів» (1996). Найцікавіше, що до загибелі Еша якраз звали Майклом.
* Коли Селена стикається з перевертнем в тунелі, чутно вовче завивання; цей звуковий ефект безпосередньо запозичено з класичного «Американського перевертня у Лондоні» (1981)


Тривалість: 02:13:36
Якість: AVC

Відео:
кодек:
розмір кадру: 1264 x 532
бітрейт: 2 443 кб/с

Аудіо #1:
мова: українська
переклад: багатоголосий закадровий
кодек: 5.1
бітрейт: 448 кб/с

Субтитри #1: форсовані
мова: українська
тип: програмні (м'які)
формат: *.srt

Субтитри #2:
мова: англійська
тип: програмні (м'які)
формат: *.srt


MediaInfo

Код:
General
Unique ID                      : 238419942606705093096859753062927652482 (0xB35E02BBF5A0054D859259E6BCFB5682)
Complete name                  : D:\Torrents\Underworld. Quadrology (2003-2012) AVC [Ukr, Eng] [Hurtom & RuTracker]\Underworld [Extended Cut] (2003) AVC [Ukr] [Hurtom & RuTracker].mkv
Format                         : Matroska
Format version                 : Version 2
File size                      : 2.75 GiB
Duration                       : 2h 13mn
Overall bit rate               : 2 950 Kbps
Movie name                     : Underworld [Extended Cut] (2003) AVC [Ukr] [Hurtom & RuTracker] by Delight
Encoded date                   : UTC 2012-11-01 08:16:29
Writing application            : mkvmerge v5.8.0 ('No Sleep / Pillow') built on Sep  2 2012 15:37:04
Writing library                : libebml v1.2.3 + libmatroska v1.3.0

Video
ID                             : 1
Format                         : AVC
Format/Info                    : Advanced Video Codec
Format profile                 : [email protected]
Format settings, CABAC         : Yes
Format settings, ReFrames      : 9 frames
Codec ID                       : V_MPEG4/ISO/AVC
Duration                       : 2h 13mn
Bit rate                       : 2 443 Kbps
Width                          : 1 264 pixels
Height                         : 532 pixels
Display aspect ratio           : 2.40:1
Frame rate mode                : Constant
Frame rate                     : 23.976 fps
Color space                    : YUV
Chroma subsampling             : 4:2:0
Bit depth                      : 8 bits
Scan type                      : Progressive
Bits/(Pixel*Frame)             : 0.152
Stream size                    : 2.28 GiB (83%)
Title                          : Underworld [Extended Cut] (2003) AVC
Writing library                : core 84 r1400kGIT 20fa784
Encoding settings              : cabac=1 / ref=9 / deblock=1:-2:-1 / analyse=0x3:0x113 / me=umh / subme=10 / psy=1 / psy_rd=1.2:0.0 / mixed_ref=1 / me_range=40 / chroma_me=1 / trellis=2 / 8x8dct=1 / cqm=0 / deadzone=21,11 / fast_pskip=0 / chroma_qp_offset=-2 / threads=3 / sliced_threads=0 / nr=0 / decimate=0 / mbaff=0 / constrained_intra=0 / bframes=9 / b_pyramid=2 / b_adapt=2 / b_bias=0 / direct=1 / wpredb=1 / wpredp=2 / keyint=250 / keyint_min=25 / scenecut=40 / intra_refresh=0 / rc=2pass / mbtree=0 / bitrate=2500 / ratetol=1.0 / qcomp=0.65 / qpmin=10 / qpmax=51 / qpstep=4 / cplxblur=20.0 / qblur=0.5 / ip_ratio=1.40 / pb_ratio=1.30 / aq=1:1.20 / zones=183471,192215,q=40 / pulldown=0 / nal_hrd=0
Language                       : English
Default                        : Yes
Forced                         : No

Audio
ID                             : 2
Format                         : AC-3
Format/Info                    : Audio Coding 3
Mode extension                 : CM (complete main)
Format settings, Endianness    : Big
Codec ID                       : A_AC3
Duration                       : 2h 13mn
Bit rate mode                  : Constant
Bit rate                       : 448 Kbps
Channel(s)                     : 6 channels
Channel positions              : Front: L C R, Side: L R, LFE
Sampling rate                  : 48.0 KHz
Bit depth                      : 16 bits
Compression mode               : Lossy
Stream size                    : 428 MiB (15%)
Title                          : 5.1; 448 kbps; багатоголосий закадровий {ICTV}
Language                       : Ukrainian
Default                        : Yes
Forced                         : No

Text #1
ID                             : 3
Format                         : UTF-8
Codec ID                       : S_TEXT/UTF8
Codec ID/Info                  : UTF-8 Plain Text
Title                          : forced
Language                       : Ukrainian
Default                        : Yes
Forced                         : No

Text #2
ID                             : 4
Format                         : UTF-8
Codec ID                       : S_TEXT/UTF8
Codec ID/Info                  : UTF-8 Plain Text
Title                          : full
Language                       : English
Default                        : No
Forced                         : No

Світлини









Інший світ: Еволюція / Underworld: Evolution (2006) AVC Ukr | sub Eng

Інший світ: Квадрологія / Underworld: Quadrology (2003-2012) AVC

«Новий розділ. Нова раса. Нова битва.»


Жанр: екшн, фентезі, науково-фантастичний
Країна: США



Кіностудія / кінокомпанія: Lakeshore Entertainment, Screen Gems Inc.
Режисер: Лен Уайзмен
Актори: Кейт Бекінсейл, Скот Спідмен, Майкл Шин, Тоні Каррен, Шейн Броллі, Дерек Якобі, Біл Найї, Ервин Ледер, Стівен Макінтош, Софі Майлс, Роббі Гі, Вентуорф Міллер, Кевін Грев'є, Зіта Горог, Деніс Дж. Козелу, Браян Стіл, Скот МакЕлрой, Тод Шнайдер, Сандор Болла, Хенк Амос, Жужа Барсі, Річард Цетрон, Майк Мукатіс, Сандор Борос, Янос Ола, Джон Ман, Майкл Шин, Софі Майлс, Річард Цетрон, Майк Мукатіс, Крістін Даніель, Кайя Джестал, Атіла Ловаджі, Олександр Грант, Моніка Гамбург, Лілі Мо Шин

Сюжет:
У зловісному нічному світі, прихованому від погляду простих смертних, не вщухає нещадна боротьба між двома кланами володарів мороку - вампірами і перевертнями. Настав час дізнатися про витоки вікової ворожнечі, що стала для вампіра-войовниці Селін і Майкла, напівперевертня-напівлюдини, прокляттям і сенсом існування.
Борючись із могутніми ворогами з обох кланів, древніми магістрами смерті, вони пізнають криваву інтригу і заборонену любов, щоб в сутінку ночі розкрити таємницю свого походження і своєї спадщини. Їх чекає велика битва, яка покінчить з вічним протистоянням - остання сутичка заради закінчення всіх воєн, в якій безсмертні повинні понести кару і розплатитися за свої злодіяння...


Тривалість: 01:46:21
Якість: AVC

Відео:
кодек:
розмір кадру: 1276 x 532
бітрейт: 2,5 Мб/с

Аудіо #1:
мова: українська
переклад: багатоголосий закадровий
кодек: 5.1
бітрейт: 448 кб/с

Субтитри:
мова: англійська
тип: програмні (м'які)
формат: *.srt


MediaInfo

Код:
General
Unique ID                      : 177458794169526946760498192113537439810 (0x8581521020C6F4B5A8B9F494876CD842)
Complete name                  : D:\Torrents\Underworld. Quadrology (2003-2012) AVC [Ukr, Eng] [Hurtom & RuTracker]\Underworld. Evolution (2006) AVC [Ukr] [Hurtom & RuTracker].mkv
Format                         : Matroska
Format version                 : Version 2
File size                      : 2.19 GiB
Duration                       : 1h 46mn
Overall bit rate               : 2 947 Kbps
Movie name                     : Underworld: Evolution (2006) AVC [Ukr] [Hurtom & RuTracker] by Delight
Encoded date                   : UTC 2012-11-01 15:09:34
Writing application            : mkvmerge v5.8.0 ('No Sleep / Pillow') built on Sep  2 2012 15:37:04
Writing library                : libebml v1.2.3 + libmatroska v1.3.0

Video
ID                             : 1
Format                         : AVC
Format/Info                    : Advanced Video Codec
Format profile                 : [email protected]
Format settings, CABAC         : Yes
Format settings, ReFrames      : 9 frames
Codec ID                       : V_MPEG4/ISO/AVC
Duration                       : 1h 46mn
Bit rate                       : 2 500 Kbps
Width                          : 1 276 pixels
Height                         : 532 pixels
Display aspect ratio           : 2.40:1
Frame rate mode                : Constant
Frame rate                     : 23.976 fps
Original frame rate            : 24.000 fps
Color space                    : YUV
Chroma subsampling             : 4:2:0
Bit depth                      : 8 bits
Scan type                      : Progressive
Bits/(Pixel*Frame)             : 0.154
Stream size                    : 1.81 GiB (83%)
Title                          : Underworld: Evolution (2006) AVC
Writing library                : core 80 r1376M 3feaec2
Encoding settings              : cabac=1 / ref=9 / deblock=1:-2:-1 / analyse=0x3:0x113 / me=umh / subme=10 / psy=1 / psy_rd=1.1:0.2 / mixed_ref=1 / me_range=40 / chroma_me=1 / trellis=2 / 8x8dct=1 / cqm=0 / deadzone=21,11 / fast_pskip=0 / chroma_qp_offset=-3 / threads=3 / sliced_threads=0 / nr=0 / decimate=0 / mbaff=0 / constrained_intra=0 / bframes=8 / b_pyramid=2 / b_adapt=2 / b_bias=0 / direct=1 / wpredb=1 / wpredp=2 / keyint=250 / keyint_min=25 / scenecut=40 / rc_lookahead=40 / rc=2pass / mbtree=1 / bitrate=2500 / ratetol=1.0 / qcomp=0.65 / qpmin=10 / qpmax=51 / qpstep=4 / cplxblur=20.0 / qblur=0.5 / ip_ratio=1.40 / aq=1:1.20
Language                       : English
Default                        : Yes
Forced                         : No

Audio
ID                             : 2
Format                         : AC-3
Format/Info                    : Audio Coding 3
Mode extension                 : CM (complete main)
Format settings, Endianness    : Big
Codec ID                       : A_AC3
Duration                       : 1h 46mn
Bit rate mode                  : Constant
Bit rate                       : 448 Kbps
Channel(s)                     : 6 channels
Channel positions              : Front: L C R, Side: L R, LFE
Sampling rate                  : 48.0 KHz
Bit depth                      : 16 bits
Compression mode               : Lossy
Stream size                    : 341 MiB (15%)
Title                          : 5.1; 448 kbps; багатоголосий закадровий {ТРК «Україна»}
Language                       : Ukrainian
Default                        : Yes
Forced                         : No

Text
ID                             : 3
Format                         : UTF-8
Codec ID                       : S_TEXT/UTF8
Codec ID/Info                  : UTF-8 Plain Text
Title                          : full
Language                       : English
Default                        : No
Forced                         : No

Світлини













Інший світ: Повстання Ліканів / Underworld: Rise of the Lycans (2009) AVC Ukr | sub Eng

Інший світ: Квадрологія / Underworld: Quadrology (2003-2012) AVC

«У кожної війни є початок»


Жанр: екшн, пригоди, фентезі
Країна: США, Нова Зеландія



Кіностудія / кінокомпанія: Lakeshore Entertainment, Screen Gems Inc.
Режисер: Патрік Татопулос
Актори: Майкл Шин, Біл Найї, Рона Мітра, Стівен Макінтош, Кевін Грев'є, Девід Ештон, Джеральдін Брофі, Лейтон Кардно, Алекс Керрол, Елізабет Хоторн, Джаред Тернер, Джейсон Худ, Maрк Mітчінсон, Таня Нолан, Крейг Паркер, Тімоті Ребі, Ларрі Рю, Пітер Тейт, Олівія Тейлфорт, Елеонор Віл"ямс, Едвін Райт

Сюжет:
Історія, що простежує походження вікової кровної помсти, між аристократичними вампірами, відомими як Торговці смертю і їх рабами. Молодий лікан на ім'я Люціан - потужний лідер, який об'єднує перевертнів, щоб виступити проти Віктора, жорстокого короля вампірів, який поневолив їх. До Люціану приєднується Соня, і допомагає йому в його боротьбі проти смертоносної армії торговців смертю і боротьбі за свободу ліканів.


Тривалість: 01:32:29
Якість: AVC

Відео:
кодек:
розмір кадру: 1268 x 528
бітрейт: 2,8 Мб/с

Аудіо #1:
мова: українська
переклад: професійний дубльований | Невафільм Україна
кодек: 5.1
бітрейт: 448 кб/с

Субтитри:
мова: англійська
тип: програмні (м'які)
формат: *.ass

Збережені оригінальні розділи як на Blu-ray


MediaInfo

Код:
General
Unique ID                      : 185450998522451042939938035825332812200 (0x8B84902918D3AF17A5313637B09979A8)
Complete name                  : D:\Torrents\Underworld. Quadrology (2003-2012) AVC [Ukr, Eng] [Hurtom & RuTracker]\Underworld. Rise of the Lycans (2009) AVC [Ukr] [Hurtom & RuTracker].mkv
Format                         : Matroska
Format version                 : Version 2
File size                      : 2.10 GiB
Duration                       : 1h 32mn
Overall bit rate               : 3 249 Kbps
Movie name                     : Underworld: Rise of the Lycans (2009) AVC [Ukr] [Hurtom & RuTracker] by Delight
Encoded date                   : UTC 2012-11-01 15:27:16
Writing application            : mkvmerge v5.8.0 ('No Sleep / Pillow') built on Sep  2 2012 15:37:04
Writing library                : libebml v1.2.3 + libmatroska v1.3.0

Video
ID                             : 1
Format                         : AVC
Format/Info                    : Advanced Video Codec
Format profile                 : [email protected]
Format settings, CABAC         : Yes
Format settings, ReFrames      : 9 frames
Codec ID                       : V_MPEG4/ISO/AVC
Duration                       : 1h 32mn
Bit rate                       : 2 800 Kbps
Width                          : 1 268 pixels
Height                         : 528 pixels
Display aspect ratio           : 2.40:1
Frame rate mode                : Constant
Frame rate                     : 23.976 fps
Color space                    : YUV
Chroma subsampling             : 4:2:0
Bit depth                      : 8 bits
Scan type                      : Progressive
Bits/(Pixel*Frame)             : 0.174
Stream size                    : 1.77 GiB (84%)
Title                          : Underworld: Rise of the Lycans (2009) AVC
Writing library                : core 80 r1376M 3feaec2
Encoding settings              : cabac=1 / ref=9 / deblock=1:-2:-1 / analyse=0x3:0x113 / me=umh / subme=10 / psy=1 / psy_rd=1.2:0.2 / mixed_ref=1 / me_range=40 / chroma_me=1 / trellis=2 / 8x8dct=1 / cqm=0 / deadzone=21,11 / fast_pskip=0 / chroma_qp_offset=-3 / threads=3 / sliced_threads=0 / nr=0 / decimate=0 / mbaff=0 / constrained_intra=0 / bframes=9 / b_pyramid=2 / b_adapt=2 / b_bias=0 / direct=1 / wpredb=1 / wpredp=2 / keyint=250 / keyint_min=25 / scenecut=40 / rc=2pass / mbtree=0 / bitrate=2800 / ratetol=1.0 / qcomp=0.65 / qpmin=10 / qpmax=51 / qpstep=4 / cplxblur=20.0 / qblur=0.5 / ip_ratio=1.40 / pb_ratio=1.30 / aq=1:1.20 / zones=126047,133032,q=40
Language                       : English
Default                        : Yes
Forced                         : No

Audio
ID                             : 2
Format                         : AC-3
Format/Info                    : Audio Coding 3
Mode extension                 : CM (complete main)
Format settings, Endianness    : Big
Codec ID                       : A_AC3
Duration                       : 1h 32mn
Bit rate mode                  : Constant
Bit rate                       : 448 Kbps
Channel(s)                     : 6 channels
Channel positions              : Front: L C R, Side: L R, LFE
Sampling rate                  : 48.0 KHz
Bit depth                      : 16 bits
Compression mode               : Lossy
Stream size                    : 296 MiB (14%)
Title                          : 5.1; 448 kbps; професійний дубльований {Невафільм Україна}
Language                       : Ukrainian
Default                        : Yes
Forced                         : No

Text
ID                             : 3
Format                         : ASS
Codec ID                       : S_TEXT/ASS
Codec ID/Info                  : Advanced Sub Station Alpha
Compression mode               : Lossless
Title                          : full
Language                       : English
Default                        : No
Forced                         : No

Menu #1
00:00:00.054                   : en:00:00:00.054 / en:00:00:00.054 / en:00:00:00.054 / en:00:00:00.054

Menu #2
00:00:00.054                   : en:00:00:00.054 / en:00:00:00.054 / en:00:00:00.054

Menu #3
00:00:00.054                   : en:00:00:00.054 / en:00:00:00.054 / en:00:00:00.054

Світлини











Інший світ: Пробудження / Underworld: Awakening (2012) AVC Ukr/Eng | sub Ukr/Eng

Інший світ: Квадрологія / Underworld: Quadrology (2003-2012) AVC

«Помста прокинулась»


Жанр: екшн, жахи, фентезі
Країна: США



Кіностудія / кінокомпанія: Lakeshore Entertainment, Screen Gems Inc.
Режисер: Монс Морлінд, Бйорн Стейн
Актори: Кейт Бекінсейл, Стівен Рі, Майкл Ілі, Тео Джеймс, Індія Айлі, Чарльз Денс, Сандрін Холт, Крістен Холден-Рід, Джейкоб Блер, Адам Рейд та інші

Сюжет:
Через дванадцять років в стані, близькому до коматозного, Селін дізнається про існування рідної чотирнадцятирічної дочки Нісси — гібрида вампіра і лікана. Тепер Селін необхідно перешкодити БіоКом створити суперліканів, які знищать їх усіх.


Тривалість: 01:28:35
Якість: AVC

Відео:
кодек:
розмір кадру: 1200 x 500
бітрейт: 2,62 Мб/с

Аудіо #1:
мова: українська
переклад: професійний дубльований | Postmodern
кодек: 5.1
бітрейт: 448 кб/с

Аудіо #2:
мова: англійська
переклад: оригінал
кодек: 5.1
бітрейт: 448 кб/с

Субтитри #1: повні
мова: українська
тип: програмні (м'які)
формат: *.srt

Субтитри #2-3: повні, SDH
мова: англійська
тип: програмні (м'які)
формат: *.srt

Збережені оригінальні розділи як на Blu-ray


MediaInfo

Код:
General
Unique ID                      : 174424628514568538446627140571138249693 (0x8338F6257C4719EE87FE3D765B6653DD)
Complete name                  : D:\Torrents\Underworld. Quadrology (2003-2012) AVC [Ukr, Eng] [Hurtom & RuTracker]\Underworld. Awakening (2012) AVC [Ukr, Eng] [Hurtom & RuTracker].mkv
Format                         : Matroska
Format version                 : Version 2
File size                      : 2.18 GiB
Duration                       : 1h 28mn
Overall bit rate               : 3 518 Kbps
Movie name                     : Underworld: Awakening (2012) AVC [Ukr, Eng] [Hurtom & RuTracker] by Delight
Encoded date                   : UTC 2012-11-01 16:01:03
Writing application            : mkvmerge v5.8.0 ('No Sleep / Pillow') built on Sep  2 2012 15:37:04
Writing library                : libebml v1.2.3 + libmatroska v1.3.0

Video
ID                             : 1
Format                         : AVC
Format/Info                    : Advanced Video Codec
Format profile                 : [email protected]
Format settings, CABAC         : Yes
Format settings, ReFrames      : 10 frames
Codec ID                       : V_MPEG4/ISO/AVC
Duration                       : 1h 28mn
Bit rate                       : 2 620 Kbps
Width                          : 1 200 pixels
Height                         : 500 pixels
Display aspect ratio           : 2.40:1
Frame rate mode                : Constant
Frame rate                     : 23.976 fps
Color space                    : YUV
Chroma subsampling             : 4:2:0
Bit depth                      : 8 bits
Scan type                      : Progressive
Bits/(Pixel*Frame)             : 0.182
Stream size                    : 1.58 GiB (73%)
Title                          : Underworld: Awakening (2012) AVC
Writing library                : core 120 r2164 da19765
Encoding settings              : cabac=1 / ref=10 / deblock=1:-2:-1 / analyse=0x3:0x133 / me=umh / subme=11 / psy=1 / psy_rd=0.80:0.00 / mixed_ref=1 / me_range=48 / chroma_me=1 / trellis=2 / 8x8dct=1 / cqm=0 / deadzone=21,11 / fast_pskip=0 / chroma_qp_offset=-2 / threads=6 / sliced_threads=0 / nr=0 / decimate=1 / interlaced=0 / bluray_compat=0 / constrained_intra=0 / bframes=9 / b_pyramid=2 / b_adapt=2 / b_bias=0 / direct=3 / weightb=1 / open_gop=0 / weightp=2 / keyint=240 / keyint_min=23 / scenecut=40 / intra_refresh=0 / rc_lookahead=80 / rc=2pass / mbtree=1 / bitrate=2620 / ratetol=1.0 / qcomp=0.60 / qpmin=0 / qpmax=69 / qpstep=4 / cplxblur=20.0 / qblur=0.5 / ip_ratio=1.40 / aq=1:0.90
Language                       : English
Default                        : Yes
Forced                         : No

Audio #1
ID                             : 2
Format                         : AC-3
Format/Info                    : Audio Coding 3
Mode extension                 : CM (complete main)
Format settings, Endianness    : Big
Codec ID                       : A_AC3
Duration                       : 1h 28mn
Bit rate mode                  : Constant
Bit rate                       : 448 Kbps
Channel(s)                     : 6 channels
Channel positions              : Front: L C R, Side: L R, LFE
Sampling rate                  : 48.0 KHz
Bit depth                      : 16 bits
Compression mode               : Lossy
Stream size                    : 284 MiB (13%)
Title                          : 5.1; 448 kbps; професійний дубльований {Postmodern}
Language                       : Ukrainian
Default                        : Yes
Forced                         : No

Audio #2
ID                             : 3
Format                         : AC-3
Format/Info                    : Audio Coding 3
Mode extension                 : CM (complete main)
Format settings, Endianness    : Big
Codec ID                       : A_AC3
Duration                       : 1h 28mn
Bit rate mode                  : Constant
Bit rate                       : 448 Kbps
Channel(s)                     : 6 channels
Channel positions              : Front: L C R, Side: L R, LFE
Sampling rate                  : 48.0 KHz
Bit depth                      : 16 bits
Compression mode               : Lossy
Stream size                    : 284 MiB (13%)
Title                          : 5.1; 448 kbps; original
Language                       : English
Default                        : No
Forced                         : No

Text #1
ID                             : 4
Format                         : UTF-8
Codec ID                       : S_TEXT/UTF8
Codec ID/Info                  : UTF-8 Plain Text
Title                          : full
Language                       : Ukrainian
Default                        : No
Forced                         : No

Text #2
ID                             : 5
Format                         : UTF-8
Codec ID                       : S_TEXT/UTF8
Codec ID/Info                  : UTF-8 Plain Text
Title                          : forced
Language                       : English
Default                        : Yes
Forced                         : No

Text #3
ID                             : 6
Format                         : UTF-8
Codec ID                       : S_TEXT/UTF8
Codec ID/Info                  : UTF-8 Plain Text
Title                          : full
Language                       : English
Default                        : No
Forced                         : No

Menu
00:00:00.000                   : en:00:00:00.000
00:04:26.057                   : en:00:04:26.057
00:07:45.340                   : en:00:07:45.340
00:16:20.188                   : en:00:16:20.188
00:21:11.812                   : en:00:21:11.812
00:24:49.988                   : en:00:24:49.988
00:30:29.828                   : en:00:30:29.828
00:35:31.755                   : en:00:35:31.755
00:40:04.944                   : en:00:40:04.944
00:45:23.930                   : en:00:45:23.930
00:52:30.731                   : en:00:52:30.731
00:57:21.563                   : en:00:57:21.563
01:02:53.937                   : en:01:02:53.937
01:07:43.726                   : en:01:07:43.726
01:12:18.501                   : en:01:12:18.501
01:16:41.430                   : en:01:16:41.430

Світлини



















Джерело: & &
Особиста оцінка: Один з улюблених і найкращих в даній тематиці


Бронзовий реліз (на рейтинг впливає 75% завантаженого)
 Трекер:    Зареєстрований   

Завантажити / скачати фільм українською



відео для новачків



 Зареєстрований:   2012-11-02 16:49
 Розмір:   9.22 GB 
 Оцінка фільму:   9.9/10 (Голосів: 64)
   
syrnik 
Новенький


З нами з: 17.07.09
Востаннє: 04.12.16
Повідомлень: 17

2012-11-03 18:28  
Виправ назву на [Ukr], [Ukr,Eng] лише 1 з 4.
don pedro 
Попереджень: 1
Попереджень: 1 


З нами з: 29.06.11
Востаннє: 05.12.16
Повідомлень: 8735

2012-11-03 18:31  
Шкода, що в третьому фільмі в ролі Селін не Кейт Бекнсейл, а Рона Мітра. Хороша актриса, але без Бекінсейл фільм вже не той. Жду п'яту частинуHappy.
DеLight 
Відео Гуртом - фільмокрай
Відео Гуртом - фільмокрай


З нами з: 24.08.11
Востаннє: 17.11.16
Повідомлень: 664

2012-11-03 18:34  
syrnik написано:
Виправ назву на [Ukr], [Ukr,Eng] лише 1 з 4.

Англійська доріжка у всіх частинах присутня, тільки в 1, 2, 3 частинах - окремим файлом.

karvai0 
Відео Гуртом - запис з ТБ
Відео Гуртом - запис з ТБ


З нами з: 18.01.10
Востаннє: 09.09.16
Повідомлень: 3686

2012-12-16 01:50  
Delight` написано:
Underworld: Quadrology

Quadrilogy

Віктор 
Відео Гуртом - субтитрування
Відео Гуртом - субтитрування


З нами з: 09.01.10
Востаннє: 04.12.16
Повідомлень: 8663

2012-12-16 01:54  
robotron005 
Відео Гуртом - фільмокрай
Відео Гуртом - фільмокрай


З нами з: 29.01.09
Востаннє: 04.12.16
Повідомлень: 2984

2013-09-23 23:21  
Зараз по 2плюс2 перша частина в крутій озвучці
Текст читають актори - Георгій Гавриленко та Ніна Касторф.

xslim 
Відео Гуртом - фільмокрай
Відео Гуртом - фільмокрай


З нами з: 04.03.09
Востаннє: 05.12.16
Повідомлень: 784

2013-09-24 01:26  
Цитата:
Зараз по 2плюс2 перша частина в крутій озвучці
Текст читають актори - Георгій Гавриленко та Ніна Касторф

Записав + ще є запис з Нового каналу.

Dats 
Свій


З нами з: 12.07.14
Востаннє: 22.11.16
Повідомлень: 99

2014-08-16 15:31  
Та станьте хтось на роздачу, а то не те що що маленькою швидкістю качає, воно взагалі не качає
don pedro 
Попереджень: 1
Попереджень: 1 


З нами з: 29.06.11
Востаннє: 05.12.16
Повідомлень: 8735

2014-08-24 13:09  
Як Кейт Бекінсейл займається йогою:

https://www.youtube.com/watch?v=4cmVAwdHMlE

А це те саме, але у якості:

https://www.youtube.com/watch?v=eCS_IOkRGu0

don pedro 
Попереджень: 1
Попереджень: 1 


З нами з: 29.06.11
Востаннє: 05.12.16
Повідомлень: 8735

2015-05-16 01:42  
Блага вість: скоріше всього п'ята частина з'явиться у кінці 2016-го, або на у січні 2017 р. з Кейт Бекінсейл у ролі Селени. Обговорюються також спін-офи та серіал на основі історії:

http://screenrant.com/underworld-5-kate-beckinsale/

dorozkin 
Новенький


З нами з: 30.12.14
Востаннє: 04.12.16
Повідомлень: 1

2015-05-16 13:37  
станьте хтось, будь-ласка, на роздачу...
DenSGC 
Новенький


З нами з: 06.11.11
Востаннє: 14.10.16
Повідомлень: 3

2015-05-17 13:00  
Будь ласка, верніться на роздачу. Як завантажу все, то допоможу роздавати.
Purdun 
Свій


З нами з: 05.09.13
Востаннє: 29.08.16
Повідомлень: 82

2015-09-08 20:39  
Щось я не прохавав за "Повстання Ліканів" - навіщо вампіри зустрічалися з людьми? Так, щоб срібло взяти, але навіщо вампірам бабло, та ще й срібне, у них ще відраза від цього металу.
Ua.bos_01 
VIP


З нами з: 22.06.15
Востаннє: 03.12.16
Повідомлень: 1290

2015-09-08 22:48  
Цитата:
Щось я не прохавав за "Повстання Ліканів"
Так, там не мало неточностей та ляпів.
MrRyanCooper 
VIP


З нами з: 23.08.12
Востаннє: 03.12.16
Повідомлень: 280

2015-09-10 20:14  
Purdun, там взагалі легенді не відповідає. Наприклад, в Ван Хельсінг було правильно: коли повний місяць світить на перевертня, но він стає тварюкою. Так, тут є такий кадр, але перевертнями в Іншому світі робилися і не через місяць, перетворювались навіть якщо він не світив. І в фільмі ще було сказано: Лікани оберігають сон вампірів удень - що це значить, перетворюватися могли ще й вдень??!!
Bruce_Nolan 
Свій


З нами з: 17.06.14
Востаннє: 26.11.16
Повідомлень: 120

2015-09-11 20:01  
Та нєа, не перетворювалися удень на тварюк! Був день, коли Соня (Рона Мітра) згоріла на сонці, Люціан був же без ошийника і не перетворився, а потім звечоріло - прийшов Віктор, то Люціан перетворився, розірвав кайдани і далі самі знаєте що.
Purdun 
Свій


З нами з: 05.09.13
Востаннє: 29.08.16
Повідомлень: 82

2015-09-17 23:31  
Щось або я туплю або не реально саби до 2003 скачати - мені на неперекладені місця.
don pedro 
Попереджень: 1
Попереджень: 1 


З нами з: 29.06.11
Востаннє: 05.12.16
Повідомлень: 8735

2016-09-07 20:41  
Довгоочікуваний трейлер п'ятого (і, нібито, останнього) фільму:


Ваш часовий пояс: GMT + 2 Години

Нова тема   Відповісти