Завантажити та скачати торренти українською


Yuliya Roma (Юлія Рома) - Heartbeats (2006) [FLAC] | Jazz

Нові коментарі

Нова тема   Відповісти
Автор Повідомлення
ssTAss 
Модератор музики


З нами з: 05.07.08
Востаннє: 05.12.16
Повідомлень: 10939

2012-10-27 21:02  
Yuliya Roma (Юлія Рома) - Heartbeats (2006) [FLAC] | Jazz

Yuliya Roma (Юлія Рома) - Heartbeats (2006) [FLAC] | Jazz


Стиль: Jazz
Країна, місто: Україна, Ладижин
Сайти: Офіційний сайт
Видавець: Rostok Records
Виконавці:
Юлія Рома – вокал
Наталія Лебедєва – фортепіано, клавішні
Олександр Павлов – гітара
Артем Менделенко – сопрано саксофон
Ігор Закус – бас
Алекс Фантаєв – ударні
Пісні:
    1. On the wings of songs
    2. People
    3. Another time
    4. Turn away
    5. Roads and loads
    6. The taste of love
    7. I will be there
    8. Smell of the past
    9. Heartbeats
    10. Every little step
log
Exact Audio Copy V0.99 prebeta 5 from 4. May 2009

EAC extraction logfile from 12. January 2010, 17:39

/ My CD

Used drive : MATSHITADVD-R UJ-857E Adapter: 0 ID: 0

Read mode : Secure
Utilize accurate stream : Yes
Defeat audio cache : Yes
Make use of C2 pointers : No

Read offset correction : 102
Overread into Lead-In and Lead-Out : No
Fill up missing offset samples with silence : Yes
Delete leading and trailing silent blocks : No
Null samples used in CRC calculations : Yes
Used interface : Native Win32 interface for Win NT & 2000
Gap handling : Appended to previous track

Used output format : Internal WAV Routines
Sample format : 44.100 Hz; 16 Bit; Stereo

TOC of the extracted CD

Track | Start | Length | Start sector | End sector
---------------------------------------------------------
1 | 0:00.00 | 4:01.01 | 0 | 18075
2 | 4:01.01 | 6:08.62 | 18076 | 45737
3 | 10:09.63 | 4:30.03 | 45738 | 65990
4 | 14:39.66 | 5:10.07 | 65991 | 89247
5 | 19:49.73 | 4:52.35 | 89248 | 111182
6 | 24:42.33 | 5:24.15 | 111183 | 135497
7 | 30:06.48 | 4:18.25 | 135498 | 154872
8 | 34:24.73 | 5:25.39 | 154873 | 179286
9 | 39:50.37 | 6:26.32 | 179287 | 208268
10 | 46:16.69 | 4:11.67 | 208269 | 227160

Track 1

Filename C:\Torrent\01. – On the wings of songs.wav

Pre-gap length 0:00:02.00

Peak level 100.0 %
Track quality 100.0 %
Test CRC A4CADDF7
Copy CRC A4CADDF7
Copy OK

Track 2

Filename C:\Torrent\02. – People.wav

Pre-gap length 0:00:02.00

Peak level 100.0 %
Track quality 100.0 %
Test CRC E0A8202E
Copy CRC E0A8202E
Copy OK

Track 3

Filename C:\Torrent\03. – Another time.wav

Pre-gap length 0:00:00.49

Peak level 99.1 %
Track quality 100.0 %
Test CRC 8722BF2C
Copy CRC 8722BF2C
Copy OK

Track 4

Filename C:\Torrent\04. – Turn away.wav

Pre-gap length 0:00:01.00

Peak level 99.0 %
Track quality 100.0 %
Test CRC 32A5B40C
Copy CRC 32A5B40C
Copy OK

Track 5

Filename C:\Torrent\05. – Roads and loads.wav

Pre-gap length 0:00:01.00

Peak level 99.7 %
Track quality 100.0 %
Test CRC DC4996B5
Copy CRC DC4996B5
Copy OK

Track 6

Filename C:\Torrent\06. – Taste of love.wav

Pre-gap length 0:00:01.00

Peak level 100.0 %
Track quality 100.0 %
Test CRC 6A5AB5C3
Copy CRC 6A5AB5C3
Copy OK

Track 7

Filename C:\Torrent\07. – I will be there.wav

Pre-gap length 0:00:01.49

Peak level 99.4 %
Track quality 99.9 %
Test CRC 9E52B2E8
Copy CRC 9E52B2E8
Copy OK

Track 8

Filename C:\Torrent\08. – Smell of the past.wav

Pre-gap length 0:00:02.00

Peak level 99.7 %
Track quality 100.0 %
Test CRC 892FEB04
Copy CRC 892FEB04
Copy OK

Track 9

Filename C:\Torrent\09. – Heartbeats.wav

Pre-gap length 0:00:01.00

Peak level 99.4 %
Track quality 100.0 %
Test CRC A8591417
Copy CRC A8591417
Copy OK

Track 10

Filename C:\Torrent\10. – Every little step.wav

Pre-gap length 0:00:01.00

Peak level 95.7 %
Track quality 100.0 %
Test CRC 8D501E79
Copy CRC 8D501E79
Copy OK

No errors occurred

End of status report
fooCDtect
fooCDtect - foobar2000 + auCDtect, baralgin.

auCDtect: CD records authenticity detector, version 0.8.2
Copyright (c) 2004 Oleg Berngardt. All rights reserved.
Copyright (c) 2004 Alexander Djourik. All rights reserved.

mode: 0

===========================================
Track: 01 - On The Wings Of Songs
Quality: CDDA 99%
===========================================
Track: 02 - People
Quality: CDDA 99%
===========================================
Track: 03 - Another Time
Quality: CDDA 100%
===========================================
Track: 04 - Turn Away
Quality: CDDA 100%
===========================================
Track: 05 - Roads And Loads
Quality: CDDA 100%
===========================================
Track: 06 - The Taste Of Love
Quality: CDDA 99%
===========================================
Track: 07 - I Will Be There
Quality: CDDA 100%
===========================================
Track: 08 - Smell Of The Past
Quality: CDDA 99%
===========================================
Track: 09 - Heartbeats
Quality: CDDA 99%
===========================================
Track: 10 - Every Little Step
Quality: CDDA 99%
===========================================
Тривалість: 00:50:29
Мова: англійська
Аудіо-кодек: FLAC
Бітрейт: 841 кб/с
Джерело: інший трекер (зібрано в образ, заповнено теги)
Додаткова інформація:
Тут зараз четверта ранку, небо світлішає… одчинив всі вікна і слухаю невагому, прохолодну, але й таку теплу музику – свіже повітря, подвійна порція... Десь за хвилину до сходу сонця всі птахи замовкають, стихає навіть вранішній вітерець – чекають на диво – і сонце сходить... В цю хвилину тиші твої думки, вода, повітря – найбільш чисті й прозорі, чесні й... не маю слів таких. Але – спів Юлії Роми звучить так, як та хвилина тиші перед сходом, наче блакитні очі тримісячної дитини, уважно й легко... музика цього голосу перетворює джаз на м’який кришталь, вона настільки майстерна, що не привертає до себе зайвої уваги – але насправді ти не можеш припинити слухати, помічати, відчувати – і сонце сходить, і сходить серце... і коли воно співає так, як пахне ніжно навесні верба – це правильно. Коли слухаєш нову музику і розумієш, що іще однією справжньою красою у світі стало більше – це правильно. Коли пісні своєю прозорістю дещо виходять за межі навіть джазу, не окреслюючи межі нові – це правильно. Мені тепер здається, що розумію це серцебиття, і знаю, як варто слухати "Heartbeats". Потрібно слухати не альбом навіть, не спів – а скрізь нього. Уважно й легко – неодмінно. І тоді цей голос тебе прочиняє – туди, де простір, і чесно, і світло...
Антон Йожик Лейба


Якщо Ви справді бажаєте підтримати українське - після прослуховування, якщо музика вам сподобалась,
придбайте ліцензійний диск.
Підтримаймо вітчизняних виконавців!


Срібний реліз (на рейтинг впливає 50% завантаженого)
 Трекер:    Зареєстрований   

Завантажити / скачати українську музику



відео для новачків



 Зареєстрований:   2012-10-27 21:02
 Розмір:   305 MB 
 Оцінка музики:   6.6/10 (Голосів: 8)
   
Ваш часовий пояс: GMT + 2 Години

Нова тема   Відповісти