Завантажити та скачати торренти українською


Нова Людина-Павук / The Amazing Spider-Man (2012) AVC Ukr | sub Eng

Нові коментарі

Нова тема   Відповісти
Автор Повідомлення
DеLight 
Відео Гуртом - фільмокрай
Відео Гуртом - фільмокрай


З нами з: 24.08.11
Востаннє: 17.11.16
Повідомлень: 664

2012-10-26 13:56  
Нова Людина-Павук / The Amazing Spider-Man (2012) AVC Ukr | sub Eng


Нова Людина-Павук / The Amazing Spider-Man (2012) AVC Ukr | sub Eng


Жанр: екшн, пригоди, фантастика
Країна: США



Кіностудія / кінокомпанія: Columbia Pictures, Laura Ziskin Productions, Marvel Enterprises, Marvel Studios Inc.



Марк Вебб / Marc Webb

Ендрю Гарфілд / Andrew Garfield, Емма Стоун / Emma Stone, Ріс Айфенс / Rhys Ifans, Деніс Лірі / Denis Leary, Мартін Шин / Martin Sheen, Саллі Філд / Sally Field, Ембет Девідц / Embeth Davidtz, Кембелл Скотт / Campbell Scott, Ірфан Кхан / Irfan Khan, Кріс Зілка / Chris Zylka, С. Томас Хауелл / C. Thomas Howell та інші

У дитинстві Пітер Паркер був покинутий своїми батьками, і тому виховувався дядьком і тіткою. Йшли роки, Пітер був звичайним зразковим школярем, піддавався нападкам хуліганів і був закоханий у свою однокласницю Гвен Стейсі, яка сама потай відповідала йому взаємністю. Але після укусу генетично зміненого павука, Пітер отримує неймовірні надздібності і його життя змінюється назавжди.

Однак його не перестає турбувати питання про те, що сталося з його батьками. Він знайомиться з давнім другом і партнером свого батька - генетиком Куртом Коннорсом, який разом з батьком Пітера розробляв формулу регенерації. Пітер допомагає її закінчити, а Коннорс, усе життя мріяв відновити свою праву руку, вводить формулу собі і стає ящіром. Усвідомлюючи свою провину, Пітер починає нове життя в образі таємничого супергероя Людини-павука і стає грозою злочинців, одночасно намагаючись знайти спосіб зупинити Коннорса.



Тривалість: 02:16:17
Якість: AVC [джерело: The Amazing Spider-Man (2012) {2-Disc Edition} Blu-ray CEE 1080p AVC DD5.1; ріп від Vaippp]

Відео:
кодек:
розмір кадру: 1032 x 430
бітрейт: 1844 кб/с

Аудіо:
мова: українська
переклад: професійний дубльований | LeDoyen Studio
кодек: 5.1
бітрейт: 448 кб/с

Субтитри:
мова: англійська
тип: програмні (м'які)
формат: *.srt

Збережені оригінальні розділи як на Blu-ray


[email protected] & MediaInfo

Код:

[info]: frame I:1901 Avg QP:13.06 size: 64963
[info]: frame P:45903 Avg QP:16.54 size: 20472
[info]: frame B:148251 Avg QP:18.82 size: 5543

----------------------------------------------------------------

General
Unique ID                      : 184149299356574774392303566315804964311 (0x8A89DD6FC7A6630FAD29A5B87A3435D7)
Complete name                  : D:\Torrents\The Amazing Spider-Man (2012) AVC [Ukr] [Hurtom & HQ-ViDEO].mkv
Format                         : Matroska
Format version                 : Version 2
File size                      : 2.18 GiB
Duration                       : 2h 16mn
Overall bit rate               : 2 294 Kbps
Movie name                     : The Amazing Spider-Man (2012) AVC [Ukr] [Hurtom & HQ-ViDEO] by Delight
Encoded date                   : UTC 2012-10-26 11:47:46
Writing application            : mkvmerge v5.8.0 ('No Sleep / Pillow') built on Sep  2 2012 15:37:04
Writing library                : libebml v1.2.3 + libmatroska v1.3.0

Video
ID                             : 1
Format                         : AVC
Format/Info                    : Advanced Video Codec
Format profile                 : [email protected]
Format settings, CABAC         : Yes
Format settings, ReFrames      : 9 frames
Codec ID                       : V_MPEG4/ISO/AVC
Duration                       : 2h 16mn
Bit rate                       : 1 844 Kbps
Width                          : 1 032 pixels
Height                         : 430 pixels
Display aspect ratio           : 2.40:1
Frame rate mode                : Constant
Frame rate                     : 23.976 fps
Color space                    : YUV
Chroma subsampling             : 4:2:0
Bit depth                      : 8 bits
Scan type                      : Progressive
Bits/(Pixel*Frame)             : 0.173
Stream size                    : 1.71 GiB (78%)
Title                          : The Amazing Spider-Man (2012) AVC
Writing library                : core 128 r2216 198a7ea
Encoding settings              : cabac=1 / ref=9 / deblock=1:-2:-1 / analyse=0x3:0x133 / me=umh / subme=10 / psy=1 / psy_rd=1.00:0.03 / mixed_ref=1 / me_range=32 / chroma_me=1 / trellis=2 / 8x8dct=1 / cqm=0 / deadzone=21,11 / fast_pskip=0 / chroma_qp_offset=-3 / threads=12 / lookahead_threads=2 / sliced_threads=0 / nr=0 / decimate=0 / interlaced=0 / bluray_compat=0 / constrained_intra=0 / bframes=12 / b_pyramid=2 / b_adapt=2 / b_bias=0 / direct=3 / weightb=1 / open_gop=0 / weightp=2 / keyint=240 / keyint_min=22 / scenecut=40 / intra_refresh=0 / rc_lookahead=60 / rc=2pass / mbtree=0 / bitrate=1844 / ratetol=1.0 / qcomp=0.68 / qpmin=0 / qpmax=69 / qpstep=4 / cplxblur=20.0 / qblur=0.5 / vbv_maxrate=50000 / vbv_bufsize=62500 / nal_hrd=none / ip_ratio=1.40 / pb_ratio=1.30 / aq=1:0.90 / zones=187354,196054,q=35
Language                       : English
Default                        : Yes
Forced                         : No
Color primaries                : BT.709
Transfer characteristics       : BT.709
Matrix coefficients            : BT.709

Audio
ID                             : 2
Format                         : AC-3
Format/Info                    : Audio Coding 3
Mode extension                 : CM (complete main)
Format settings, Endianness    : Big
Codec ID                       : A_AC3
Duration                       : 2h 16mn
Bit rate mode                  : Constant
Bit rate                       : 448 Kbps
Channel(s)                     : 6 channels
Channel positions              : Front: L C R, Side: L R, LFE
Sampling rate                  : 48.0 KHz
Bit depth                      : 16 bits
Compression mode               : Lossy
Stream size                    : 437 MiB (20%)
Title                          : 5.1; 448 kbps; професійний дубльований {LeDoyen Studio}
Language                       : Ukrainian
Default                        : Yes
Forced                         : No

Text
ID                             : 3
Format                         : UTF-8
Codec ID                       : S_TEXT/UTF8
Codec ID/Info                  : UTF-8 Plain Text
Title                          : full
Language                       : English
Default                        : No
Forced                         : No

Menu
00:00:00.000                   : en:00:00:00.000
00:07:45.924                   : en:00:07:45.924
00:14:39.670                   : en:00:14:39.670
00:22:57.543                   : en:00:22:57.543
00:32:58.226                   : en:00:32:58.226
00:41:25.066                   : en:00:41:25.066
00:48:42.503                   : en:00:48:42.503
00:55:10.933                   : en:00:55:10.933
01:03:17.293                   : en:01:03:17.293
01:12:29.011                   : en:01:12:29.011
01:17:51.750                   : en:01:17:51.750
01:24:38.949                   : en:01:24:38.949
01:34:04.556                   : en:01:34:04.556
01:42:59.548                   : en:01:42:59.548
01:52:16.355                   : en:01:52:16.355
02:00:52.912                   : en:02:00:52.912

Світлини

















Джерело: & &


 Трекер:    Зареєстрований   

Завантажити / скачати фільм українською



відео для новачків



 Зареєстрований:   2012-10-26 13:56
 Розмір:   2.18 GB 
 Оцінка фільму:   9.8/10 (Голосів: 35)
   
Ваш часовий пояс: GMT + 2 Години

Нова тема   Відповісти