Завантажити та скачати торренти українською


Рубі Спаркс / Ruby Sparks (2012) 720p Eng | Sub Ukr

Нові коментарі

Нова тема   Відповісти
Автор Повідомлення
antusyrzhuk 
Свій


З нами з: 09.06.09
Востаннє: 19.11.16
Повідомлень: 145

2012-10-24 13:35  
Рубі Спаркс / Ruby Sparks (2012) 720p Eng | Sub Ukr

Рубі Спаркс / Ruby Sparks (2012) 720p Eng | Sub Ukr


Жанр: комедія, фентезі, романтичний
Країна: США



Кіностудія / кінокомпанія: Bona Fide Productions, Fox Searchlight Pictures
Режисер: Джонатан Дейтон (Jonathan Dayton), Валері Феріс (Valerie Faris)
Актори: Пол Дено (Paul Dano), Зої Кезен (Zoe Kazan), Кріс Мессіна (Chris Messina), Аннетт Бенінг (Annette Bening), Антоніо Бандерас (Antonio Banderas), Тоні Тракс (Toni Trucks) та ін.

Сюжет:
Кельвін - молодий романіст, що досягнув неймовірного успіху у своїй кар'єрі, однак зараз у нього не все складається із творчістю, так само як із особистим життям. Врешті йому вдається вигадати персонажа, який надихає його, - Рубі. Коли Кельвін раптово бачить Рубі - з плоті й крові - яка раптом з'являється через тиждень потому, він не може повірити своїм очам. Між цим Пігмаліоном та Галатеєю виникають стосунки. Якщо щось іде не так, як хочеться, - Кельвін завжди може все переписати.


Тривалість: 01:44:06
Якість:
Відео: (автор ріпу - AMIABLE)
кодек:
розмір кадру: 1280 х 696
бітрейт: 4500 кб/с

Аудіо:
мова: англійська
переклад: оригінал
кодек: 5.1
бітрейт: 1510 кб/с

Субтитри:
мова: українська
тип: пререндерні
формат: *.sub + *.idx
джерело субтитрів -


Субтитри:
мова: англійська
тип: програмні (м'які)
формат: *.srt
MediaInfo
Format : Matroska
Format version : Version 2
File size : 4.37 GiB
Duration : 1h 44mn
Overall bit rate : 6 012 Kbps
Movie name : Ruby Sparks*2012 /antusyrzhuk
Encoded date : UTC 2012-10-24 10:46:10
Writing application : mkvmerge v5.8.0 ('No Sleep / Pillow') built on Sep 2 2012 15:37:04
Writing library : libebml v1.2.3 + libmatroska v1.3.0

Video
ID : 1
Format : AVC
Format/Info : Advanced Video Codec
Format profile : [email protected]
Format settings, CABAC : Yes
Format settings, ReFrames : 5 frames
Codec ID : V_MPEG4/ISO/AVC
Duration : 1h 44mn
Bit rate : 4 500 Kbps
Width : 1 280 pixels
Height : 696 pixels
Display aspect ratio : 1.85:1
Frame rate : 23.976 fps
Color space : YUV
Chroma subsampling : 4:2:0
Bit depth : 8 bits
Scan type : Progressive
Bits/(Pixel*Frame) : 0.211
Stream size : 3.19 GiB (73%)
Writing library : core 128 r2216 198a7ea
Encoding settings : cabac=1 / ref=5 / deblock=1:0:0 / analyse=0x3:0x113 / me=umh / subme=8 / psy=1 / psy_rd=1.00:0.00 / mixed_ref=1 / me_range=16 / chroma_me=1 / trellis=1 / 8x8dct=1 / cqm=0 / deadzone=21,11 / fast_pskip=1 / chroma_qp_offset=-2 / threads=12 / lookahead_threads=2 / sliced_threads=0 / nr=0 / decimate=1 / interlaced=0 / bluray_compat=0 / constrained_intra=0 / bframes=3 / b_pyramid=2 / b_adapt=2 / b_bias=0 / direct=3 / weightb=1 / open_gop=0 / weightp=2 / keyint=240 / keyint_min=24 / scenecut=40 / intra_refresh=0 / rc_lookahead=50 / rc=2pass / mbtree=1 / bitrate=4500 / ratetol=1.0 / qcomp=0.60 / qpmin=0 / qpmax=69 / qpstep=4 / cplxblur=20.0 / qblur=0.5 / ip_ratio=1.40 / aq=1:1.00
Language : English
Default : Yes
Forced : No

Audio
ID : 2
Format :
Format/Info : Digital Theater Systems
Codec ID : A_DTS
Duration : 1h 44mn
Bit rate mode : Constant
Bit rate : 1 510 Kbps
Channel(s) : 6 channels
Channel positions : Front: L C R, Side: L R, LFE
Sampling rate : 48.0 KHz
Bit depth : 24 bits
Compression mode : Lossy
Stream size : 1.10 GiB (25%)
Language : English
Default : Yes
Forced : No

Text #1
ID : 3
Format : UTF-8
Codec ID : S_TEXT/UTF8
Codec ID/Info : UTF-8 Plain Text
Language : English
Default : No
Forced : No

Text #2
ID : 4
Format : VobSub
Muxing mode : zlib
Codec ID : S_VOBSUB
Codec ID/Info : The same subtitle format used on DVDs
Language : Ukrainian
Default : Yes
Forced : No
Скріншоти





Джерело: PublicHD
Особиста оцінка: 10 - без зайвих вагань рекомендую всім!


 Трекер:    Зареєстрований   

Завантажити / скачати фільм українською



відео для новачків



 Зареєстрований:   2012-10-24 13:35
 Розмір:   4.37 GB 
 Оцінка фільму:   9.3/10 (Голосів: 18)
   
hellforces 
VIP


З нами з: 25.06.08
Востаннє: 11.11.16
Повідомлень: 1556

2012-10-24 15:25  
antusyrzhuk написано:
Джерело озвучення:


тут нема озвучення

waldi-hurtom 
VIP


З нами з: 07.10.12
Востаннє: 09.12.16
Повідомлень: 613

2013-01-03 21:59  
Нічогенький фільм, цікавий, шкода, немає озвучки. Хоча в цьому є свої плюси, але розслабитись не вдається... Happy 8 балів.
3ipbudax 
Новенький


З нами з: 07.02.09
Востаннє: 07.11.16
Повідомлень: 14

2015-11-12 20:03  
станьте хтось на роздачу
Ваш часовий пояс: GMT + 2 Години

Нова тема   Відповісти