Завантажити та скачати торренти українською


Хор церкви Благовіщення Києво-Могилянської Академії - Перевесло (хорові обробки українських календарних обрядових пісень) (2001) [FLAC] | Chorus

Нові коментарі

Нова тема   Відповісти
Автор Повідомлення
ssTAss 
Модератор музики


З нами з: 05.07.08
Востаннє: 09.12.16
Повідомлень: 10948

2012-10-23 13:55  
Хор церкви Благовіщення Києво-Могилянської Академії - Перевесло (хорові обробки українських календарних обрядових пісень) (2001) [FLAC] | Chorus

Хор церкви Благовіщення Києво-Могилянської Академії - Перевесло (хорові обробки українських календарних обрядових пісень) (2001) [FLAC] | Chorus


Стиль: Chorus, Folk
Країна, місто: Україна, Київ
Видавець: Караван рекордс
Виконавці:
Співають:
Сопрано - Т. Білик, О. Сапожник, А. Цуприк
Альти - Л. Гірник, М. Настенко, В. Потоцька
Тенори - О. Герасимюк, В. Куфльовський, В. Солодкий
Баси - Е. Орро, М. Свято, В. Соколовський, А. Хутаєв, А. Чаюк
Солісти:
Т. Білик (1, 9, 11, 19, 29), О. Сапожник (12), А. Цуприк (15, 17, 25)
Л. Гірник (17, 20), В. Потоцька (11, 14), В. Куфльовський (10, 17 - бандура, 21)
В. Солодкий (8, 11, 16). М. Свято (28) В. Соколовський (11, 20, 28)

На старосвітській бандурі грає і співає Тарас Компаніченко
На баяні акомпанує Володимир Дичко
На сопілках грають Ельмар і Едгар Орро
Регент: Валентина Кульчинська-Шовкун
Пісні:
    01 Весна іде
    02 Благослови мати (обр. Г. Грами)
    03 "Виступець" (весняний танок, запис Маркевича та Вілінської)
    04 Весна наша (обр. М. Колесси)
    05 Гра в зайчика (обр. М. Леонтовича)
    06 Човен хитається
    07 В гаю зелененькім (лемківська, обр. Ф. Колесси)
    08 Ніч, яка Господи (слова М. Старицького)
    09 Ти до мене не ходи (обр. І. Хуторянського)
    10 Струмок (Г. Верета)
    11 Чи ти чула, дівчинонько (обр. М. Колесса)
    12 Купала на Йвана (обр. О. Грами)
    13 Солнце низенько (укр. нар. пісня)
    14 Ой крикнула лебедонька (обр. М. Лисенка)
    15 Ой на Івана Купала (обр. І. Бідака)
    16 Мав я раз дівчиноньку
    17 Марина (купальський хоровод, обр. І. Сулими)
    18 За городком качки пливуть (обр. М. Леонтовича)
    19 Де пшениченька шуміла (муз. Є. Козака, обр. О. Новицького)
    20 Чоловіче, я слаба (обр. А. Кос-Анатольського)
    21 Як ішов я з Дебречина
    22 Гой, сядьмо в коло (різдвяна застільна пісня, поч. XVIII ст.)
    23 Восклікніте Янголи (колядка)
    24 Чути дзвінок (колядка)
    25 Янголи в небі (колядка, обр. О Кошниця)
    26 Василько (щедрівка, обр. О. Грами)
    27 Небо ясні зірки вкрили (нар. щедрівка)
    28 Щедрівка (Л. Дичко)
    29 Щедрик (обр. М. Леонтовича)

Тривалість: 00:56:26
Мова: українська
Аудіо-кодек: FLAC
Бітрейт: 559 кб/с
Джерело: рутрекер
Додаткова інформація:
log
Exact Audio Copy V0.99 prebeta 5 from 4. May 2009

EAC extraction logfile from 27. March 2011, 20:53

Chorus / Pereveslo

Used drive : HL-DT-STDVDRAM GH22NS50 Adapter: 1 ID: 0

Read mode : Secure
Utilize accurate stream : Yes
Defeat audio cache : Yes
Make use of C2 pointers : No

Read offset correction : 667
Overread into Lead-In and Lead-Out : No
Fill up missing offset samples with silence : Yes
Delete leading and trailing silent blocks : No
Null samples used in CRC calculations : Yes
Used interface : Native Win32 interface for Win NT & 2000

Used output format : User Defined Encoder
Selected bitrate : 128 kBit/s
Quality : High
Add ID3 tag : No
Command line compressor : C:\Program Files (x86)\Exact Audio Copy\Flac\flac.exe
Additional command line options : -8 -V -T "ARTIST=%a" -T "TITLE=%t" -T "ALBUM=%g" -T "DATE=%y" -T "TRACKNUMBER=%n" -T "GENRE=%m" -T "COMMENT=EAC FLAC -8" %s

TOC of the extracted CD

Track | Start | Length | Start sector | End sector
---------------------------------------------------------
1 | 0:00.00 | 0:19.57 | 0 | 1481
2 | 0:19.57 | 0:53.04 | 1482 | 5460
3 | 1:12.61 | 2:43.03 | 5461 | 17688
4 | 3:55.64 | 0:40.70 | 17689 | 20758
5 | 4:36.59 | 1:19.02 | 20759 | 26685
6 | 5:55.61 | 1:53.48 | 26686 | 35208
7 | 7:49.34 | 2:02.03 | 35209 | 44361
8 | 9:51.37 | 2:07.40 | 44362 | 53926
9 | 11:59.02 | 1:28.48 | 53927 | 60574
10 | 13:27.50 | 0:51.53 | 60575 | 64452
11 | 14:19.28 | 2:07.03 | 64453 | 73980
12 | 16:26.31 | 2:47.39 | 73981 | 86544
13 | 19:13.70 | 1:53.64 | 86545 | 95083
14 | 21:07.59 | 3:41.40 | 95084 | 111698
15 | 24:49.24 | 2:14.18 | 111699 | 121766
16 | 27:03.42 | 2:02.61 | 121767 | 130977
17 | 29:06.28 | 3:30.40 | 130978 | 146767
18 | 32:36.68 | 1:23.18 | 146768 | 153010
19 | 34:00.11 | 2:31.40 | 153011 | 164375
20 | 36:31.51 | 2:11.02 | 164376 | 174202
21 | 38:42.53 | 2:40.33 | 174203 | 186235
22 | 41:23.11 | 2:37.03 | 186236 | 198013
23 | 44:00.14 | 1:40.17 | 198014 | 205530
24 | 45:40.31 | 1:37.03 | 205531 | 212808
25 | 47:17.34 | 1:57.02 | 212809 | 221585
26 | 49:14.36 | 1:08.47 | 221586 | 226732
27 | 50:23.08 | 3:10.03 | 226733 | 240985
28 | 53:33.11 | 1:26.17 | 240986 | 247452
29 | 54:59.28 | 1:26.40 | 247453 | 253942

Range status and errors

Selected range

Filename C:\Users\Администратор\Desktop\Chorus - Pereveslo\Chorus - Pereveslo.wav

Peak level 100.0 %
Range quality 100.0 %
Test CRC 26947C15
Copy CRC 26947C15
Copy OK

No errors occurred

End of status report
fooCdtect
fooCDtect - foobar2000 + auCDtect, baralgin.

auCDtect: CD records authenticity detector, version 0.8.2
Copyright (c) 2004 Oleg Berngardt. All rights reserved.
Copyright (c) 2004 Alexander Djourik. All rights reserved.

mode: 0

===========================================
Track: 01 - Весна іде
Quality: CDDA 58%
===========================================
Track: 02 - Благослови, мати
Quality: CDDA 92%
===========================================
Track: 03 - Виступець
Quality: CDDA 58%
===========================================
Track: 04 - Весна наша
Quality: CDDA 49%
===========================================
Track: 05 - Гра в зайчика
Quality: CDDA 76%
===========================================
Track: 06 - Човен хитається
Quality: Unknown
===========================================
Track: 07 - В гаю зелененькім
Quality: CDDA 54%
===========================================
Track: 08 - Ніч яка, Господи
Quality: CDDA 100%
===========================================
Track: 09 - Ти до мене не ходи
Quality: CDDA 43%
===========================================
Track: 10 - Струмок
Quality: MPEG 90%
===========================================
Track: 11 - Чи ти чула, дівчинонько
Quality: CDDA 42%
===========================================
Track: 12 - Купала на Йвана
Quality: MPEG 100%
===========================================
Track: 13 - Сонце низенько
Quality: CDDA 100%
===========================================
Track: 14 - Ой крикнула лебедонька
Quality: Unknown
===========================================
Track: 15 - Ой на Івана Купала
Quality: MPEG 91%
===========================================
Track: 16 - Мав я раз дівчиноньку
Quality: CDDA 43%
===========================================
Track: 17 - Марина
Quality: Unknown
===========================================
Track: 18 - За городом качки пливуть
Quality: MPEG 90%
===========================================
Track: 19 - Де пшениченька шуміла
Quality: MPEG 93%
===========================================
Track: 20 - Чоловіче, я слаба
Quality: MPEG 100%
===========================================
Track: 21 - Як ішов я з Дебречина
Quality: CDDA 100%
===========================================
Track: 22 - Гой, сядьмо в коло
Quality: CDDA 58%
===========================================
Track: 23 - Восклікніте Янголи
Quality: CDDA 76%
===========================================
Track: 24 - Чути дзвінок
Quality: MPEG 90%
===========================================
Track: 25 - Янголи в небі
Quality: MPEG 89%
===========================================
Track: 26 - Василько
Quality: MPEG 93%
===========================================
Track: 27 - Небо ясні зірки вкрили
Quality: MPEG 93%
===========================================
Track: 28 - Щедрівка
Quality: MPEG 93%
===========================================
Track: 29 - Щедрик
Quality: CDDA 43%
===========================================


Якщо Ви справді бажаєте підтримати українське - після прослуховування, якщо музика вам сподобалась,
придбайте ліцензійний диск.
Підтримаймо вітчизняних виконавців!


Срібний реліз (на рейтинг впливає 50% завантаженого)
 Трекер:    Зареєстрований   

Завантажити / скачати українську музику



відео для новачків



 Зареєстрований:   2012-10-23 13:55
 Розмір:   230 MB 
 Оцінка музики:   7/10 (Голосів: 9)
   
song 
Свій


З нами з: 23.10.12
Востаннє: 18.09.16
Повідомлень: 73

2013-06-02 17:59  
Хоча написано, що п'ять роздають, але це щось не відповідає дійсності вже довший час. Станьте на роздачу, хто не байдужий до нашої народної спадщини.
ssTAss 
Модератор музики


З нами з: 05.07.08
Востаннє: 09.12.16
Повідомлень: 10948

2013-06-02 20:57  
song написано:
Рейтинг: 0.01

з таким рейтингом Вам буде важко щось завантажувати

Ваш часовий пояс: GMT + 2 Години

Нова тема   Відповісти