Завантажити та скачати торренти українською


У дорозі / On the Road (2012) 720p Eng | Sub Ukr

Нові коментарі

Нова тема   Відповісти
Автор Повідомлення
antusyrzhuk 
Свій


З нами з: 09.06.09
Востаннє: 19.11.16
Повідомлень: 145

2012-10-21 13:03  
У дорозі / On the Road (2012) 720p Eng | Sub Ukr



Жанр: пригодницький, драма
Країна: Франція, Великобританія, США, Бразилія



Кіностудія / кінокомпанія: MK2 Productions, American Zoetrope, Jerry Leider Company
Режисер: Волтер Саллес (Walter Salles)
Актори: Сем Райлі (Sam Riley), Гаррет Гедлагд (Garrett Hedlund), Том Старрідж (Tom Sturridge), Крістен Стюарт (Kristen Stewart), Кірстен Данст (Kirsten Dunst), Вігго Мортенсен (Viggo Mortensen), Еймі Адамс (Amy Adams), Елізабет Мосс (Elisabeth Moss) та ін.

Сюжет:
Фільм за однойменним романом Джека Керуака. Молодий письменник Сел Парадайз (прототипом якого є сам Керуак) вирушає у подорож Америкою, зустрічаючи при цьому різних людей, що впливають на його життя.


Тривалість: 02:19:42
Якість:
Відео: (з PublicHD)
кодек:
розмір кадру: 1280 х 544
бітрейт: 4090 кб/с

Аудіо:
мова: англійська
переклад: оригінал
кодек: 5.1
бітрейт: 1510 кб/с

Субтитри:
мова: українська
тип: програмні (м'які)
формат: *.srt

Джерело субтитрів - DVD (синхронізація та редагування antusyrzhuk)
MediaInfo
Format : Matroska
Format version : Version 2
File size : 5.46 GiB
Duration : 2h 19mn
Overall bit rate : 5 599 Kbps
Movie name : On the road*2012 /antusyrzhuk
Encoded date : UTC 2012-10-21 12:20:04
Writing application : mkvmerge v5.8.0 ('No Sleep / Pillow') built on Sep 2 2012 15:37:04
Writing library : libebml v1.2.3 + libmatroska v1.3.0

Video
ID : 1
Format : AVC
Format/Info : Advanced Video Codec
Format profile : [email protected]
Format settings, CABAC : Yes
Format settings, ReFrames : 5 frames
Codec ID : V_MPEG4/ISO/AVC
Duration : 2h 19mn
Bit rate : 4 090 Kbps
Width : 1 280 pixels
Height : 544 pixels
Display aspect ratio : 2.35:1
Frame rate : 24.000 fps
Color space : YUV
Chroma subsampling : 4:2:0
Bit depth : 8 bits
Scan type : Progressive
Bits/(Pixel*Frame) : 0.245
Stream size : 3.88 GiB (71%)
Writing library : core 125 r2208 d9d2288
Encoding settings : cabac=1 / ref=5 / deblock=1:0:0 / analyse=0x3:0x113 / me=umh / subme=8 / psy=1 / psy_rd=1.00:0.00 / mixed_ref=1 / me_range=16 / chroma_me=1 / trellis=1 / 8x8dct=1 / cqm=0 / deadzone=21,11 / fast_pskip=1 / chroma_qp_offset=-2 / threads=12 / lookahead_threads=2 / sliced_threads=0 / nr=0 / decimate=1 / interlaced=0 / bluray_compat=0 / constrained_intra=0 / bframes=3 / b_pyramid=2 / b_adapt=2 / b_bias=0 / direct=3 / weightb=1 / open_gop=0 / weightp=2 / keyint=240 / keyint_min=24 / scenecut=40 / intra_refresh=0 / rc_lookahead=50 / rc=2pass / mbtree=1 / bitrate=4090 / ratetol=1.0 / qcomp=0.60 / qpmin=0 / qpmax=69 / qpstep=4 / cplxblur=20.0 / qblur=0.5 / ip_ratio=1.40 / aq=1:1.00
Language : English
Default : Yes
Forced : No

Audio
ID : 2
Format :
Format/Info : Digital Theater Systems
Codec ID : A_DTS
Duration : 2h 19mn
Bit rate mode : Constant
Bit rate : 1 510 Kbps
Channel(s) : 6 channels
Channel positions : Front: L C R, Side: L R, LFE
Sampling rate : 48.0 KHz
Bit depth : 24 bits
Compression mode : Lossy
Stream size : 1.47 GiB (27%)
Language : English
Default : Yes
Forced : No

Text
ID : 3
Format : UTF-8
Codec ID : S_TEXT/UTF8
Codec ID/Info : UTF-8 Plain Text
Language : Ukrainian
Default : Yes
Forced : No
Скріншоти







Джерело: PublicHD
Особиста оцінка: 10 - без зайвих вагань рекомендую всім!


 Трекер:    Зареєстрований   

Завантажити / скачати фільм українською



відео для новачків



 Зареєстрований:   2012-10-21 14:34
 Розмір:   5.46 GB 
 Оцінка фільму:   9.7/10 (Голосів: 9)
   
Інші релізи
   На дорозі / On the Road (2012) Eng | Sub Ukr Skiff  4 / 0   2.19 GB   2012-10-12 19:17 
taras1994 
Почесний оцифрувальник літератури


З нами з: 23.03.12
Востаннє: 30.11.16
Повідомлень: 5096

2012-10-21 13:59  
потрібно переробити, вимкни:
antusyrzhuk написано:
Muxing mode : Header stripping

virsh 
Новенький


З нами з: 13.11.10
Востаннє: 19.11.16
Повідомлень: 8

2012-10-21 14:33  
ого швидко, мабуть в прокаті провалився.
Sjanyk San 
Свій


З нами з: 06.01.11
Востаннє: 14.10.16
Повідомлень: 103

2012-10-21 18:25  
вам буде цікаво. про гроші, гонорари акторів, фінансування фільму, історію, чому Марлон Брандо 50 років тому відмовився від екранізації культового роману, та інше читайте тут http://www.hollywoodreporter.com/news/kristen-stewart-twilight-breaking-dawn-on-the-road-jack-kerouac-322580
GALAXYSOUL 
Новенький


З нами з: 31.10.10
Востаннє: 01.09.13
Повідомлень: 3

2012-10-22 07:23  
virsh
цей фільм просто не для широкого прокату

antusyrzhuk 
Свій


З нами з: 09.06.09
Востаннє: 19.11.16
Повідомлень: 145

2012-11-13 10:46  
Лінк на Вікіпедію On the road (книга) http://en.wikipedia.org/wiki/On_the_road
Відомим прототипом був Вільям Барроуз (Старий Бик Лі). У фільмі "Аптечний ковбой" (http://toloka.to/t35500) він грає священика-наркомана, у короткометражці "Різдво джанкі" (http://toloka.to/t32735) читає своє оповідання.
В образі Карло Маркса вгадується Аллен Гінзберг. Про нього знято фільм "Плач" (http://toloka.to/t32383). Дін Моріарті написаний з Ніла Кесіді - однієї з важливих фігур покоління бітників. Кажуть, саме він багато в чому задав характер головного персонажа "Над зозулиним гніздом" Кена Кізі. До речі, в документальній стрічці "Magic trip" (http://www.imdb.com/title/tt1235790/) фігурують і Кізі, і Кесіді.

waldi-hurtom 
VIP


З нами з: 07.10.12
Востаннє: 05.12.16
Повідомлень: 611

2012-11-23 00:33  
чудовий фільм, усім причетним - велика подяка!!!
за прокат, народе, нічого й казати, лише порівняйте американського шерлока холмса для олігофренів з британським серіалом і Джеремі Бреттом. ось вам і прокат як оцінка "якості"! Happy

=KateRyna= 
Новенький


З нами з: 26.08.14
Востаннє: 04.12.16
Повідомлень: 14

2015-08-09 08:34  
Станьте хтось на роздачу, пліз)
ntv3337 
Новенький


З нами з: 13.03.13
Востаннє: 26.11.16
Повідомлень: 2

2016-07-27 16:51  
Привіт)
Кому не важко, роздайте))
дуже треба)

Ваш часовий пояс: GMT + 2 Години

Нова тема   Відповісти