Завантажити та скачати торренти українською


Іво Бобул - Небеса очей твоїх (2003) [FLAC] | Pop

Нові коментарі

Нова тема   Відповісти
Автор Повідомлення
ssTAss 
Модератор музики


З нами з: 05.07.08
Востаннє: 09.12.16
Повідомлень: 10948

2012-10-17 22:20  
Іво Бобул - Небеса очей твоїх (2003) [FLAC] | Pop

Іво Бобул - Небеса очей твоїх (2003) [FLAC] | Pop


Стиль: Pop
Країна, місто: Україна, с. Тереблене (Глибоцького району Чернівецької області)
Видавець: Студія 6 Секунд
Виконавці:
Іван Васильович Бобул
Пісні:
    1. Розмова з тобою
    2. Жоржини
    3. Чотири пори року
    4. Небеса очей твоїх
    5. Скрипалю
    6. Моя любов, моя журба
    7. Місячне колесо
    8. Ти зігрій мене
    9. Якщо любиш, кохай
    10. Не судилося
    11. Листопад
    12. Лоредана
    13. Берег любові
log
Exact Audio Copy V1.0 beta 3 from 29. August 2011

Отчёт EAC об извлечении, выполненном 4. октября 2012, 21:45

Іво Бобул / Небеса очей твоїх

Дисковод: ATAPI iHAS624 B Adapter: 2 ID: 1

Режим чтения : Достоверность
Использование точного потока : Да
Отключение кэша аудио : Да
Использование указателей C2 : Нет

Коррекция смещения при чтении : 6
Способность читать области Lead-in и Lead-out : Нет
Заполнение пропущенных сэмплов тишиной : Да
Удаление блоков с тишиной в начале и конце : Нет
При вычислениях CRC использовались нулевые сэмплы : Да
Интерфейс : Встроенный Win32-интерфейс для Win NT/2000
Обработка зазоров : Добавлено к предыдущему треку

Выходной формат : Пользовательский кодировщик
Выбранный битрейт : 768 kBit/s
Качество : Высокий
Добавление ID3-тега : Нет
Утилита сжатия : C:\Program Files (x86)\Exact Audio Copy\FLAC\FLAC.EXE
Дополнительные параметры : -V -8 -T "Genre=%genre%" -T "Artist=%artist%" -T "Title=%title%" -T "Album=%albumtitle%" -T "Date=%year%" -T "Composer=%composer%" -T "Tracknumber=%tracknr%" -T "Comment=%comment%" %source%

TOC извлечённого CD

Трек | Старт | Длительность | Начальный сектор | Конечный сектор
---------------------------------------------------------------------
1 | 0:00.00 | 3:41.41 | 0 | 16615
2 | 3:41.41 | 4:25.48 | 16616 | 36538
3 | 8:07.14 | 3:57.61 | 36539 | 54374
4 | 12:05.00 | 4:30.37 | 54375 | 74661
5 | 16:35.37 | 3:27.16 | 74662 | 90202
6 | 20:02.53 | 4:57.59 | 90203 | 112536
7 | 25:00.37 | 4:16.08 | 112537 | 131744
8 | 29:16.45 | 4:32.23 | 131745 | 152167
9 | 33:48.68 | 3:25.24 | 152168 | 167566
10 | 37:14.17 | 4:49.70 | 167567 | 189311
11 | 42:04.12 | 4:02.56 | 189312 | 207517
12 | 46:06.68 | 4:42.53 | 207518 | 228720
13 | 50:49.46 | 4:57.16 | 228721 | 251011

Трек 1

Имя файла D:\Rip\01 - Розмова з тобою.wav

Длина предзазора 0:00:02.00

Пиковый уровень 98.0 %
Скорость извлечения 1.1 X
Качество трека 100.0 %
CRC теста 9054A602
CRC копии 9054A602
Копирование... OK

Трек 2

Имя файла D:\Rip\02 - Жоржини.wav

Пиковый уровень 98.0 %
Скорость извлечения 1.1 X
Качество трека 100.0 %
CRC теста 98D404B8
CRC копии 98D404B8
Копирование... OK

Трек 3

Имя файла D:\Rip\03 - Чотири пори року.wav

Пиковый уровень 98.0 %
Скорость извлечения 1.0 X
Качество трека 100.0 %
CRC теста F43849DA
CRC копии F43849DA
Копирование... OK

Трек 4

Имя файла D:\Rip\04 - Небеса очей твоїх.wav

Пиковый уровень 98.0 %
Скорость извлечения 1.1 X
Качество трека 100.0 %
CRC теста 762461D3
CRC копии 762461D3
Копирование... OK

Трек 5

Имя файла D:\Rip\05 - Скрипалю.wav

Пиковый уровень 98.0 %
Скорость извлечения 1.0 X
Качество трека 100.0 %
CRC теста AF0B501F
CRC копии AF0B501F
Копирование... OK

Трек 6

Имя файла D:\Rip\06 - Моя любов, моя журба.wav

Пиковый уровень 98.0 %
Скорость извлечения 1.0 X
Качество трека 99.9 %
CRC теста A78A6E0E
CRC копии A78A6E0E
Копирование... OK

Трек 7

Имя файла D:\Rip\07 - Місячне колесо.wav

Пиковый уровень 98.0 %
Скорость извлечения 1.0 X
Качество трека 100.0 %
CRC теста 9E9F8CBF
CRC копии 9E9F8CBF
Копирование... OK

Трек 8

Имя файла D:\Rip\08 - Ти зігрій мене.wav

Пиковый уровень 98.0 %
Скорость извлечения 1.0 X
Качество трека 100.0 %
CRC теста D6E8A582
CRC копии D6E8A582
Копирование... OK

Трек 9

Имя файла D:\Rip\09 - Якщо любиш, кохай.wav

Пиковый уровень 98.0 %
Скорость извлечения 1.0 X
Качество трека 100.0 %
CRC теста B0E2D608
CRC копии B0E2D608
Копирование... OK

Трек 10

Имя файла D:\Rip\10 - Не судилося.wav

Пиковый уровень 98.0 %
Скорость извлечения 1.1 X
Качество трека 100.0 %
CRC теста 8DF4327F
CRC копии 8DF4327F
Копирование... OK

Трек 11

Имя файла D:\Rip\11 - Листопад.wav

Пиковый уровень 98.0 %
Скорость извлечения 1.0 X
Качество трека 100.0 %
CRC теста BF707EA5
CRC копии BF707EA5
Копирование... OK

Трек 12

Имя файла D:\Rip\12 - Лоредана.wav

Пиковый уровень 98.0 %
Скорость извлечения 1.0 X
Качество трека 100.0 %
CRC теста 5E0EE2FC
CRC копии 5E0EE2FC
Копирование... OK

Трек 13

Имя файла D:\Rip\13 - Берег любові.wav

Пиковый уровень 98.0 %
Скорость извлечения 1.0 X
Качество трека 100.0 %
CRC теста 94525312
CRC копии 94525312
Копирование... OK

Ошибок не произошло

Конец отчёта

==== Контрольная сумма отчёта A15ABFC62D739C68C6556FA43C14B5857C5628497A0123AE42F0B8D20076188F ====
audiochecker
AUDIOCHECKER v2.0 beta (build 457) - by Dester - [email protected]
~~~~~~~~~~~~~~~~~~~~~~~~~~~~~~~~~~

Начато: четверг, 04. 10. 2012. - 23:59.00
Найдено файлов: 13

01 -===- D:\Torrent Downloads\Музыка\Іво Бобул - Небеса очей твоїх (2003)\01 - Розмова з тобою.flac
Извлечение успешно выполнено
Заключение: этот трек - CDDA с вероятностью 100%
Временный файл удалён.

02 -===- D:\Torrent Downloads\Музыка\Іво Бобул - Небеса очей твоїх (2003)\02 - Жоржини.flac
Извлечение успешно выполнено
Заключение: этот трек - MPEG с вероятностью 95%
Временный файл удалён.

03 -===- D:\Torrent Downloads\Музыка\Іво Бобул - Небеса очей твоїх (2003)\03 - Чотири пори року.flac
Извлечение успешно выполнено
Заключение: этот трек - CDDA с вероятностью 100%
Временный файл удалён.

04 -===- D:\Torrent Downloads\Музыка\Іво Бобул - Небеса очей твоїх (2003)\04 - Небеса очей твоїх.flac
Извлечение успешно выполнено
Заключение: этот трек - CDDA с вероятностью 100%
Временный файл удалён.

05 -===- D:\Torrent Downloads\Музыка\Іво Бобул - Небеса очей твоїх (2003)\05 - Скрипалю.flac
Извлечение успешно выполнено
Заключение: этот трек - MPEG с вероятностью 95%
Временный файл удалён.

06 -===- D:\Torrent Downloads\Музыка\Іво Бобул - Небеса очей твоїх (2003)\06 - Моя любов, моя журба.flac
Извлечение успешно выполнено
Заключение: этот трек - CDDA с вероятностью 100%
Временный файл удалён.

07 -===- D:\Torrent Downloads\Музыка\Іво Бобул - Небеса очей твоїх (2003)\07 - Місячне колесо.flac
Извлечение успешно выполнено
Заключение: этот трек - CDDA с вероятностью 99%
Временный файл удалён.

08 -===- D:\Torrent Downloads\Музыка\Іво Бобул - Небеса очей твоїх (2003)\08 - Ти зігрій мене.flac
Извлечение успешно выполнено
Заключение: этот трек - CDDA с вероятностью 99%
Временный файл удалён.

09 -===- D:\Torrent Downloads\Музыка\Іво Бобул - Небеса очей твоїх (2003)\09 - Якщо любиш, кохай.flac
Извлечение успешно выполнено
Заключение: этот трек - CDDA с вероятностью 100%
Временный файл удалён.

10 -===- D:\Torrent Downloads\Музыка\Іво Бобул - Небеса очей твоїх (2003)\10 - Не судилося.flac
Извлечение успешно выполнено
Заключение: этот трек - CDDA с вероятностью 100%
Временный файл удалён.

11 -===- D:\Torrent Downloads\Музыка\Іво Бобул - Небеса очей твоїх (2003)\11 - Листопад.flac
Извлечение успешно выполнено
Заключение: этот трек - CDDA с вероятностью 100%
Временный файл удалён.

12 -===- D:\Torrent Downloads\Музыка\Іво Бобул - Небеса очей твоїх (2003)\12 - Лоредана.flac
Извлечение успешно выполнено
Заключение: этот трек - MPEG с вероятностью 95%
Временный файл удалён.

13 -===- D:\Torrent Downloads\Музыка\Іво Бобул - Небеса очей твоїх (2003)\13 - Берег любові.flac
Извлечение успешно выполнено
Заключение: этот трек - MPEG с вероятностью 95%
Временный файл удалён.

Завершено: пятница, 05. 10. 2012. - 0:15.38 (Время операции: 0:16.38)
Тривалість: 00:55:47
Мова: українська
Аудіо-кодек: FLAC
Бітрейт: ~900 кб/с
Джерело: рутрекер
Додаткова інформація:
На відміну від першого, "Тополиної любові", цей альбом більш стрімкий, ритмічний. Хоча приємно зазначити, що Іво Бобул не вдається тут до спортивного бігу - це, скоріше, просто енергійний рух по життю людини, впевненої в собі, в своїх почуттях, в своїх цілях. Так, це пісні про кохання, але не безнадійне, не книжкове, не видумане. Ні, це пісні кохання живого, повного, яке становить себе кожного дня, кожної миті. Це пісні впевненої надії на світле майбутнє. Слухаючи їх, розумієш, що така надія далеко не безпідставна.


Якщо Ви справді бажаєте підтримати українське - після прослуховування, якщо музика вам сподобалась,
придбайте ліцензійний диск.
Підтримаймо вітчизняних виконавців!


Срібний реліз (на рейтинг впливає 50% завантаженого)
 Трекер:    Зареєстрований   

Завантажити / скачати українську музику



відео для новачків



 Зареєстрований:   2012-10-17 22:20
 Розмір:   372 MB 
 Оцінка музики:   7.6/10 (Голосів: 19)
   
mr.killer 
Свій


З нами з: 11.08.10
Востаннє: 08.12.16
Повідомлень: 146

2016-08-05 08:24  
дякую за диск, а інших немає для колекції ?
Ваш часовий пояс: GMT + 2 Години

Нова тема   Відповісти