Завантажити та скачати торренти українською


Лілія Сандулеса - З любов'ю... / Я в твоих руках (2 CD) (2001) [FLAC] | Pop

Нові коментарі

Нова тема   Відповісти
Автор Повідомлення
ssTAss 
Модератор музики


З нами з: 05.07.08
Востаннє: 08.12.16
Повідомлень: 10947

2012-10-17 21:57  
Лілія Сандулеса - З любов'ю... / Я в твоих руках (2 CD) (2001) [FLAC] | Pop

Лілія Сандулеса - З любов'ю... / Я в твоих руках (2 CD) (2001) [FLAC] | Pop


Стиль: Pop
Країна, місто: Україна, Маршинці (Новоселицький район, Чернівецька область)
Видавець: ??
Виконавці:
Лілія Василівна Сандулесу (Сандулеса)
Пісні:
    СD1
    Лілія Сандулеса - Я в твоих руках (2001) [FLAC] | Pop

    Лілія Сандулеса - З любов'ю... / Я в твоих руках (2 CD) (2001) [FLAC] | Pop


    Стиль: Pop
    Країна, місто: Україна, Маршинці (Новоселицький район, Чернівецька область)
    Видавець: ??
    Виконавці:
    Лілія Василівна Сандулесу (Сандулеса)
    Пісні:
      01 - Я в твоих руках
      02 - Вірю
      03 - Love
      04 - Happy Birthday
      05 - Тільки ти (Solo Tu)
      06 - Зраджене кохання
      07 - Гостем будешь
      08 - Примэвара
      09 - Южные ночи
      10 - Гори окно
      11 - Чужая жена
      12 - Ти скажи
      13 - Роки летять
      14 - Де ти моя любове
      15 - Не питай мене
      16 - Первая любовь
    log
    Exact Audio Copy V1.0 beta 3 from 29. August 2011

    Отчёт EAC об извлечении, выполненном 4. сентября 2012, 20:22

    Лилия Сандулеса / Я в твоих руках

    Дисковод: HL-DT-STDVD-RAM GH22NP21 Adapter: 0 ID: 0

    Режим чтения : Достоверность
    Использование точного потока : Да
    Отключение кэша аудио : Да
    Использование указателей C2 : Нет

    Коррекция смещения при чтении : 102
    Способность читать области Lead-in и Lead-out : Нет
    Заполнение пропущенных сэмплов тишиной : Да
    Удаление блоков с тишиной в начале и конце : Нет
    При вычислениях CRC использовались нулевые сэмплы : Да
    Интерфейс : Встроенный Win32-интерфейс для Win NT/2000

    Выходной формат : Пользовательский кодировщик
    Выбранный битрейт : 1024 kBit/s
    Качество : Высокий
    Добавление ID3-тега : Нет
    Утилита сжатия : C:\Program Files\Exact Audio Copy\FLAC\FLAC.EXE
    Дополнительные параметры : -8 -V -T "ARTIST=%artist%" -T "TITLE=%title%" -T "ALBUM=%albumtitle%" -T "DATE=%year%" -T "TRACKNUMBER=%tracknr%" -T "GENRE=%genre%" -T "COMMENT=%comment%" %hascover%--picture="%coverfile%"%hascover% %source% -o %dest%

    TOC извлечённого CD

    Трек | Старт | Длительность | Начальный сектор | Конечный сектор
    ---------------------------------------------------------------------
    1 | 0:00.00 | 4:46.69 | 0 | 21518
    2 | 4:46.69 | 3:00.72 | 21519 | 35090
    3 | 7:47.66 | 4:16.02 | 35091 | 54292
    4 | 12:03.68 | 5:05.16 | 54293 | 77183
    5 | 17:09.09 | 4:17.07 | 77184 | 96465
    6 | 21:26.16 | 4:34.33 | 96466 | 117048
    7 | 26:00.49 | 3:56.29 | 117049 | 134777
    8 | 29:57.03 | 4:13.44 | 134778 | 153796
    9 | 34:10.47 | 4:52.43 | 153797 | 175739
    10 | 39:03.15 | 3:46.36 | 175740 | 192725
    11 | 42:49.51 | 3:57.19 | 192726 | 210519
    12 | 46:46.70 | 4:01.39 | 210520 | 228633
    13 | 50:48.34 | 3:28.18 | 228634 | 244251
    14 | 54:16.52 | 4:23.53 | 244252 | 264029
    15 | 58:40.30 | 4:09.16 | 264030 | 282720
    16 | 62:49.46 | 5:01.10 | 282721 | 305305

    Характеристики диапазона извлечения и сообщения об ошибках

    Выбранный диапазон

    Имя файла D:\Раздачи на torrents.ru\Лилия Сандулеса - Я в твоих руках,2012\Лилия Сандулеса - Я в твоих руках.wav

    Пиковый уровень 95.4 %
    Скорость извлечения 3.0 X
    Качество диапазона 100.0 %
    CRC теста 76EE3D6D
    CRC копии 76EE3D6D
    Копирование... OK

    Ошибок не произошло

    AccurateRip: сводка

    Трек 1 отсутствует в базе данных
    Трек 2 отсутствует в базе данных
    Трек 3 отсутствует в базе данных
    Трек 4 отсутствует в базе данных
    Трек 5 отсутствует в базе данных
    Трек 6 отсутствует в базе данных
    Трек 7 отсутствует в базе данных
    Трек 8 отсутствует в базе данных
    Трек 9 отсутствует в базе данных
    Трек 10 отсутствует в базе данных
    Трек 11 отсутствует в базе данных
    Трек 12 отсутствует в базе данных
    Трек 13 отсутствует в базе данных
    Трек 14 отсутствует в базе данных
    Трек 15 отсутствует в базе данных
    Трек 16 отсутствует в базе данных

    Ни одного трека нет в базе AccurateRip

    Конец отчёта

    ==== Контрольная сумма отчёта C8325F65A75FC3EC55CCE2CB5D344B9E4FD56F20CBD1398D28932CCBD4F45C56 ====
    fooCDtect

    fooCDtect - foobar2000 + auCDtect, baralgin.

    auCDtect: CD records authenticity detector, version 0.8.2
    Copyright (c) 2004 Oleg Berngardt. All rights reserved.
    Copyright (c) 2004 Alexander Djourik. All rights reserved.

    mode: 0

    ===========================================
    Track: 01 - Я в твоих руках
    Quality: MPEG 95%
    ===========================================
    Track: 02 - Вірю
    Quality: CDDA 42%
    ===========================================
    Track: 03 - Love
    Quality: CDDA 42%
    ===========================================
    Track: 04 - Happy Birthday
    Quality: MPEG 90%
    ===========================================
    Track: 05 - Тільки ти (Solo Tu)
    Quality: MPEG 93%
    ===========================================
    Track: 06 - Зраджене кохання
    Quality: MPEG 89%
    ===========================================
    Track: 07 - Гостем будешь
    Quality: MPEG 95%
    ===========================================
    Track: 08 - Примэвара
    Quality: CDDA 100%
    ===========================================
    Track: 09 - Южные ночи
    Quality: CDDA 100%
    ===========================================
    Track: 10 - Гори окно
    Quality: CDDA 100%
    ===========================================
    Track: 11 - Чужая жена
    Quality: CDDA 99%
    ===========================================
    Track: 12 - Ти скажи
    Quality: MPEG 95%
    ===========================================
    Track: 13 - Роки летять
    Quality: CDDA 100%
    ===========================================
    Track: 14 - Де ти моя любове
    Quality: CDDA 100%
    ===========================================
    Track: 15 - Не питай мене
    Quality: CDDA 100%
    ===========================================
    Track: 16 - Первая любовь
    Quality: MPEG 95%
    ===========================================
    Тривалість: 01:07:51
    Мова: українська (2,6,12-15), англійська (3) російська (1,7,8-11), італійська (?4,5), молдавська (8,16)
    Аудіо-кодек: FLAC
    Бітрейт: 967 кб/с
    Джерело: рутрекер
    CD2

    Лілія Сандулеса - З любов'ю... (2001) [FLAC] | Pop

    Лілія Сандулеса - З любов'ю... / Я в твоих руках (2 CD) (2001) [FLAC] | Pop


    Стиль: Pop
    Країна, місто: Україна, Маршинці (Новоселицький район, Чернівецька область)
    Видавець: ??
    Виконавці:
    Лілія Василівна Сандулесу (Сандулеса)
    Пісні:
      01 - Любий
      02 - Коханий
      03 - 10 000 ночей кохання
      04 - Несу свій хрест
      05 - Озвуч мою любов, гітаро
      06 - Полон
      07 - Роки летять
      08 - Світ кохання
      09 - Де ти моя любове
      10 - Не питай мене
      11 - Ти скажи
      12 - Вірю
      13 - Зраджене кохання
      14 - Зорепад
      15 - Пробач мені
      16 - Пам'ятай
    log
    Exact Audio Copy V1.0 beta 3 from 29. August 2011

    Отчёт EAC об извлечении, выполненном 4. сентября 2012, 21:25

    Лілія Сандулеса / З любовью...

    Дисковод: HL-DT-STDVD-RAM GH22NP21 Adapter: 0 ID: 0

    Режим чтения : Достоверность
    Использование точного потока : Да
    Отключение кэша аудио : Да
    Использование указателей C2 : Нет

    Коррекция смещения при чтении : 102
    Способность читать области Lead-in и Lead-out : Нет
    Заполнение пропущенных сэмплов тишиной : Да
    Удаление блоков с тишиной в начале и конце : Нет
    При вычислениях CRC использовались нулевые сэмплы : Да
    Интерфейс : Встроенный Win32-интерфейс для Win NT/2000

    Выходной формат : Пользовательский кодировщик
    Выбранный битрейт : 1024 kBit/s
    Качество : Высокий
    Добавление ID3-тега : Нет
    Утилита сжатия : C:\Program Files\Exact Audio Copy\FLAC\FLAC.EXE
    Дополнительные параметры : -8 -V -T "ARTIST=%artist%" -T "TITLE=%title%" -T "ALBUM=%albumtitle%" -T "DATE=%year%" -T "TRACKNUMBER=%tracknr%" -T "GENRE=%genre%" -T "COMMENT=%comment%" %hascover%--picture="%coverfile%"%hascover% %source% -o %dest%

    TOC извлечённого CD

    Трек | Старт | Длительность | Начальный сектор | Конечный сектор
    ---------------------------------------------------------------------
    1 | 0:00.00 | 5:09.01 | 0 | 23175
    2 | 5:09.01 | 4:00.65 | 23176 | 41240
    3 | 9:09.66 | 3:55.00 | 41241 | 58865
    4 | 13:04.66 | 5:11.70 | 58866 | 82260
    5 | 18:16.61 | 4:00.04 | 82261 | 100264
    6 | 22:16.65 | 3:07.27 | 100265 | 114316
    7 | 25:24.17 | 3:28.31 | 114317 | 129947
    8 | 28:52.48 | 3:45.12 | 129948 | 146834
    9 | 32:37.60 | 4:23.40 | 146835 | 166599
    10 | 37:01.25 | 4:09.33 | 166600 | 185307
    11 | 41:10.58 | 4:01.71 | 185308 | 203453
    12 | 45:12.54 | 3:00.51 | 203454 | 217004
    13 | 48:13.30 | 4:34.35 | 217005 | 237589
    14 | 52:47.65 | 3:46.00 | 237590 | 254539
    15 | 56:33.65 | 4:07.24 | 254540 | 273088
    16 | 60:41.14 | 3:53.69 | 273089 | 290632

    Характеристики диапазона извлечения и сообщения об ошибках

    Выбранный диапазон

    Имя файла D:\Раздачи на torrents.ru\Лилия Сандулеса - З любовью...,2001\Лілія Сандулеса - З любовью....wav

    Пиковый уровень 95.4 %
    Скорость извлечения 2.9 X
    Качество диапазона 99.9 %
    CRC теста 5564D652
    CRC копии 5564D652
    Копирование... OK

    Ошибок не произошло

    AccurateRip: сводка

    Трек 1 отсутствует в базе данных
    Трек 2 отсутствует в базе данных
    Трек 3 отсутствует в базе данных
    Трек 4 отсутствует в базе данных
    Трек 5 отсутствует в базе данных
    Трек 6 отсутствует в базе данных
    Трек 7 отсутствует в базе данных
    Трек 8 отсутствует в базе данных
    Трек 9 отсутствует в базе данных
    Трек 10 отсутствует в базе данных
    Трек 11 отсутствует в базе данных
    Трек 12 отсутствует в базе данных
    Трек 13 отсутствует в базе данных
    Трек 14 отсутствует в базе данных
    Трек 15 отсутствует в базе данных
    Трек 16 отсутствует в базе данных

    Ни одного трека нет в базе AccurateRip

    Конец отчёта

    ==== Контрольная сумма отчёта 321637467C689579F07DBBBC815B5C8EF25A76A03B7C5EC08CF4CB94173D8160 ====
    fooCdtect
    fooCDtect - foobar2000 + auCDtect, baralgin.

    auCDtect: CD records authenticity detector, version 0.8.2
    Copyright (c) 2004 Oleg Berngardt. All rights reserved.
    Copyright (c) 2004 Alexander Djourik. All rights reserved.

    mode: 0

    ===========================================
    Track: 01 - Любий
    Quality: MPEG 95%
    ===========================================
    Track: 02 - Коханий
    Quality: CDDA 100%
    ===========================================
    Track: 03 - 10 000 ночей кохання
    Quality: CDDA 100%
    ===========================================
    Track: 04 - Несу свій хрест
    Quality: MPEG 89%
    ===========================================
    Track: 05 - Озвуч мою любов, гітаро
    Quality: MPEG 95%
    ===========================================
    Track: 06 - Полон
    Quality: CDDA 100%
    ===========================================
    Track: 07 - Роки летять
    Quality: CDDA 100%
    ===========================================
    Track: 08 - Світ кохання
    Quality: CDDA 100%
    ===========================================
    Track: 09 - Де ти моя любове
    Quality: CDDA 100%
    ===========================================
    Track: 10 - Не питай мене
    Quality: CDDA 100%
    ===========================================
    Track: 11 - Ти скажи
    Quality: MPEG 95%
    ===========================================
    Track: 12 - Вірю
    Quality: MPEG 93%
    ===========================================
    Track: 13 - Зраджене кохання
    Quality: MPEG 92%
    ===========================================
    Track: 14 - Зорепад
    Quality: MPEG 79%
    ===========================================
    Track: 15 - Пробач мені
    Quality: MPEG 95%
    ===========================================
    Track: 16 - Пам'ятай
    Quality: CDDA 92%
    ===========================================
    Тривалість: 01:04:35
    Мова: українська
    Аудіо-кодек: FLAC
    Бітрейт: 970 кб/с
    Джерело: рутрекер

Тривалість: 02:12:26
Мова: українська, російська, італійська, англійська, молдавська
Аудіо-кодек: FLAC
Бітрейт: 967-970 кб/с
Джерело: рутрекер
Додаткова інформація:
Односельчанка Софії Ротару - Лілія Сандулесу (28.02.58) шлях на професійній сцені розпочала в 1977 році в чернівецькому філармонійному ВІА "Жива вода". Через три роки, разом з Олександром Сєровим перейшла у волинську філармонію (ВІА "Світязь", "Серпанки"), але за рік їхні шляхи розійшлися. Влітку 1982 року на Всеросійському конкурсі виконавців в Сочі Сандулесу була лише третьою (і це при чотирьох перших і трьох других місцях), та вже у вересні перемогла на конкурсі артистів естради України в Чернівцях (випередивши сестер Ротару, Олександра Сєрова, Віталія Білоножка і Павла Дворського). В 1984 році Сандулесу запросили до Київського мюзик-холу; з’явилася можливість частенько записуватися на радіо (з часом її прізвище почало вимовлятися на український лад - Сандулеса). В 1985 році вона добилася першого справді великого успіху - з піснею Володимира Бистрякова "Гончарный круг" пройшла в фінал всесоюзного телефестивалю "Пісня року"; фірма "Мелодія" випустила її міньйон "Спочатку ти". В 1987 році Лілії Сандулесі присвоєне звання Заслуженої артистки України. А через рік вона повернулася на Буковину співати з власним гуртом "Селена". Провінційна співачка вже не така часта гостя на радіо і телебаченні, і в 1990-му вона повертається до столиці - в театр "Етюд". Нова хвиля популярності Сандулеси надходить тільки в 1992 році, коли вона об’єднується в дуеті з Іво Бобулом. Дует виступає все більше по закордонах, де й виходить їхній компакт "Берег любови". З часом в репертуарі Сандулеси з’явилися сильні драматичні пісні - "Несу свій хрест", "Зраджене кохання". В 1996 році Лілії Сандулесі присвоєне звання Народної артистки України. По десятиріччю спільного творчого, а потім і сімейного життя Сандулеса розлучилася з Бобулом. В 2004 році вийшов її сольний компакт з невибагливою назвою "Співає Лілія Сандулеса". На початку 2006-го року Лілія Сандулеса повернулася на помешкання до Чернівців.


Якщо Ви справді бажаєте підтримати українське - після прослуховування, якщо музика вам сподобалась,
придбайте ліцензійний диск.
Підтримаймо вітчизняних виконавців!


Срібний реліз (на рейтинг впливає 50% завантаженого)
 Трекер:    Зареєстрований   

Завантажити / скачати українську музику



відео для новачків



 Зареєстрований:   2012-10-17 21:57
 Розмір:   957 MB 
 Оцінка музики:   6.4/10 (Голосів: 11)
   
Ваш часовий пояс: GMT + 2 Години

Нова тема   Відповісти