Завантажити та скачати торренти українською


Плач Єремії - концерт у Надвірній з нагоди річниці УПА (2012) DVD5 | Rock

Нові коментарі

Нова тема   Відповісти
Автор Повідомлення
LOLOLO 
Свій


З нами з: 04.03.10
Востаннє: 28.11.16
Повідомлень: 128

2012-10-16 14:22  
Плач Єремії - концерт у Надвірній з нагоди річниці УПА 14 жовтня 2012 року DVD5 | Rock




Стиль: Alternative Art Rock
Країна, місто: Україна, Київ, Львів
Виконавці: Тарас Чубай, Всеволод Дячишин, Юрко Дуда, Андрій Надольський
Треклист
01. Кед ми прийшла карта
02. Повіяв вітер степовий
03. Буде й нам з тобою що згадати
04. Із янголом на плечі
05. Пливе кача
06. Ти втретє цього літа зацвітеш
07. Золота трава
08. Мова гайова
09. Червона рута
10. Вона
11. Гей гу, гей га
12. Лента за лентою
13. Я піду в далекі гори
14. Ой хмариться (бісова бісня)
Тривалість: 01:11:23
Якість: DVD5
Відео:
кодек: MPEG-2 DVD
розмір кадру: 720x576 (4:3)
бітрейт: 9610 кб/с

Аудіо:
мова: українська
кодек: MPEG-2 DVD
бітрейт: 192 кб/с
Деталі


Format : MPEG-PS
File size : 1 024 MiB
Duration : 17mn 11s
Overall bit rate mode : Variable
Overall bit rate : 8 327 Kbps

Video
ID : 224 (0xE0)
Format : MPEG Video
Format version : Version 2
Format profile : [email protected]
Format settings, BVOP : Yes
Format settings, Matrix : Custom
Duration : 17mn 11s
Bit rate mode : Variable
Bit rate : 7 969 Kbps
Maximum bit rate : 9 610 Kbps
Width : 720 pixels
Height : 576 pixels
Display aspect ratio : 4:3
Frame rate : 25.000 fps
Standard : PAL
Color space : YUV
Chroma subsampling : 4:2:0
Bit depth : 8 bits
Scan type : Interlaced
Scan order : Bottom Field First
Compression mode : Lossy
Bits/(Pixel*Frame) : 0.769
Stream size : 980 MiB (96%)

Audio
ID : 192 (0xC0)
Format : MPEG Audio
Format version : Version 1
Format profile : Layer 2
Duration : 17mn 11s
Bit rate mode : Constant
Bit rate : 192 Kbps
Channel(s) : 2 channels
Sampling rate : 48.0 KHz
Compression mode : Lossy
Delay relative to video : -480ms
Stream size : 23.6 MiB (2%)

Menu
Скріншоти






Джерело: Концерт писаний на DVcam, зведенйи з пульта.
Особиста оцінка: 10 - без зайвих вагань рекомендую всім!


Золотий реліз (завантажене не впливає на рейтинг)
 Трекер:    Зареєстрований   

Завантажити / скачати кліп українською



відео для новачків



 Зареєстрований:   2012-10-16 14:23
 Розмір:   4.15 GB 
 Оцінка кліпу:   10/10 (Голосів: 22)
   
ssTAss 
Модератор музики


З нами з: 05.07.08
Востаннє: 05.12.16
Повідомлень: 10946

2012-10-16 16:01  
чому обкладинку кидаєте на фастпік, а не на сервер Гуртом? тепер вона не відтворюється
як і скріншоти
якщо обираєте фотохостинг, то краще імеджшак.. він найнадійніший

x-zik 
Новенький


З нами з: 20.03.10
Востаннє: 05.12.16
Повідомлень: 14

2012-10-17 16:32  
ніхто про цю подію не інформував..(
LOLOLO 
Свій


З нами з: 04.03.10
Востаннє: 28.11.16
Повідомлень: 128

2012-10-18 07:31  
x-zik
питання до організаторів. це фрагмент великого концерту, в якому брали участь інші виконавці, що мене особисто не цікавлять. а оскільки виступи Плачів є рідкісними, тим більше у нас, то виставив саме цей шмат концерту. а організатори дійства в Надвірній, вочевидь, на афішах мали б якось написати то все, по тб місцевому анонс дати, в газеті. то ж був концерт до річниці УПА. Хіба, шановний x-zik не цікавиться такими речами, як річниця УПА і Покрова, то й не звернув увагу - може, там було написано великими літерами ЩО, а меншими - ХТО....
Ну, таке..

sergiyko 
Забанено
Забанено


З нами з: 17.06.08
Востаннє: 13.10.13
Повідомлень: 259

2012-10-22 07:52  
Звук запису поганий, відчуття ніби мікрофони змінють розташуванн, рівень сигналу то наростає то слабшає.
Дякую звичайно за реліз, але як часто буває, якість бажає бути кращою.

LOLOLO 
Свій


З нами з: 04.03.10
Востаннє: 28.11.16
Повідомлень: 128

2012-10-23 14:32  
ну, то не я писав звук... звиняйте
Lev 
VIP


З нами з: 14.10.09
Востаннє: 05.12.16
Повідомлень: 1819

2012-10-29 18:05  
LOLOLO написано:
бісова бісня


краще було б написати encore, уникнувши двозначності Wide grin

так, звук місцями дуже проблемний

LOLOLO 
Свій


З нами з: 04.03.10
Востаннє: 28.11.16
Повідомлень: 128

2012-11-01 10:03  
Lev написано:
encore,

тоді виникла б асоціація з емінемом, а я його не толєрую))

metallord 
Свій


З нами з: 17.01.10
Востаннє: 17.11.16
Повідомлень: 147

2012-11-04 19:00  
інтересно чи знімали камери в Долині?
LOLOLO 
Свій


З нами з: 04.03.10
Востаннє: 28.11.16
Повідомлень: 128

2012-11-05 13:53  
кажут, жи шос здоймали
Lev 
VIP


З нами з: 14.10.09
Востаннє: 05.12.16
Повідомлень: 1819

2012-12-07 13:47  
LOLOLO написано:
тоді виникла б асоціація з емінемом, а я його не толєрую))


не тільки в нього був альбом з такою назвою.

Ваш часовий пояс: GMT + 2 Години

Нова тема   Відповісти