Завантажити та скачати торренти українською


Президент Лінкольн: Мисливець на вампірів / Abraham Lincoln: Vampire Hunter (2012) AVC

Нові коментарі

Нова тема   Відповісти
Останній раз роздавалося Ghb[jlxer (2016-11-07)
Автор Повідомлення
Drool 
VIP


З нами з: 17.04.10
Востаннє: 08.12.16
Повідомлень: 1270

2012-10-16 09:34  
Президент Лінкольн: Мисливець на вампірів / Abraham Lincoln: Vampire Hunter (2012) AVC

Жанр: жахи, фентезі, бойовик, трилер
Країна: США



Кіностудія / кінокомпанія: 20th Century Fox
Режисер: Тимур Бекмамбетов
Актори: Мері Елізабет Уінстед, Домінік Купер, Алан Тьюдік, Ентоні Макі

Сюжет:
Коли Авраам Лінкольн був ще підлітком, вампір Джим Стерджесс врятував його життя в черговій сутичці майбутнього президента з упирями. Так Лінкольн і Стерджесс стали друзями. Джим розповідав Авраамові історію вампіризму, вчив його відстежувати, битися і вбивати злих вампірів.


Тривалість: 01:45:00
Якість: AVC
Відео:
кодек:
розмір кадру: 1032x430
бітрейт: 2014 кб/с

Аудіо:
мова: українська
переклад: професійний дубльований
кодек: 5.1
бітрейт: 448 кб/с
MediaInfo
General
Unique ID : 37097614761205812211156560707045375486 (0x1BE8BD9F649E7719CD21681A61253DFE)
Complete name : /home/drool/Документы/Видео/Abraham.Lincoln.Vampire.Hunter.2012.Ukr.Dub.AVC.mkv
Format : Matroska
File size : 1.84 GiB
Duration : 1h 45mn
Overall bit rate : 2 512 Kbps
Movie name : Президент Лінкольн: Мисливець на вампірів / Abraham Lincoln: Vampire Hunter (2012) AVC | video by HQ-ViDEO (Vaippp)
Encoded date : UTC 2012-10-16 07:15:25
Writing application : mkvmerge v4.8.0 ('I Got The...') сборка от Aug 22 2011 13:16:28
Writing library : libebml v1.2.0 + libmatroska v1.1.0

Video
ID : 1
Format : AVC
Format/Info : Advanced Video Codec
Format profile : [email protected]
Format settings, CABAC : Yes
Format settings, ReFrames : 13 frames
Codec ID : V_MPEG4/ISO/AVC
Duration : 1h 45mn
Bit rate : 2 014 Kbps
Width : 1 032 pixels
Height : 430 pixels
Display aspect ratio : 2.40:1
Frame rate : 23.976 fps
Color space : YUV
Chroma subsampling : 4:2:0
Bit depth : 8 bits
Scan type : Progressive
Bits/(Pixel*Frame) : 0.189
Stream size : 1.48 GiB (80%)
Title : Президент Лінкольн: Мисливець на вампірів (by Vaippp)
Writing library : core 128 r2216 198a7ea
Encoding settings : cabac=1 / ref=13 / deblock=1:-2:-1 / analyse=0x3:0x133 / me=umh / subme=10 / psy=1 / psy_rd=1.00:0.05 / mixed_ref=1 / me_range=40 / chroma_me=1 / trellis=2 / 8x8dct=1 / cqm=0 / deadzone=21,11 / fast_pskip=1 / chroma_qp_offset=-3 / threads=12 / lookahead_threads=2 / sliced_threads=0 / nr=0 / decimate=1 / interlaced=0 / bluray_compat=0 / constrained_intra=0 / bframes=12 / b_pyramid=2 / b_adapt=2 / b_bias=0 / direct=1 / weightb=1 / open_gop=0 / weightp=2 / keyint=240 / keyint_min=22 / scenecut=40 / intra_refresh=0 / rc_lookahead=60 / rc=crf / mbtree=0 / crf=18.3 / qcomp=0.73 / qpmin=0 / qpmax=40 / qpstep=4 / vbv_maxrate=50000 / vbv_bufsize=62500 / crf_max=0.0 / nal_hrd=none / ip_ratio=1.30 / pb_ratio=1.25 / aq=1:0.80
Color primaries : BT.709-5, BT.1361, IEC 61966-2-4, SMPTE RP177
Transfer characteristics : BT.709-5, BT.1361
Matrix coefficients : BT.709-5, BT.1361, IEC 61966-2-4 709, SMPTE RP177

Audio
ID : 2
Format : AC-3
Format/Info : Audio Coding 3
Mode extension : CM (complete main)
Codec ID : A_AC3
Duration : 1h 45mn
Bit rate mode : Constant
Bit rate : 448 Kbps
Channel(s) : 6 channels
Channel positions : Front: L C R, Side: L R, LFE
Sampling rate : 48.0 KHz
Bit depth : 16 bits
Compression mode : Lossy
Stream size : 337 MiB (18%)
Title : Українська (дубляж)
Language : Ukrainian
Джерело озвучення:


Скріншоти









Походження: відеоряд взято з іноземного ріпу
Особиста оцінка: 6 - третій сорт - не брак


 Трекер:    Зареєстрований   

Завантажити / скачати фільм українською



відео для новачків



 Зареєстрований:   2012-10-16 09:34
 Розмір:   1.84 GB 
 Оцінка фільму:   7.4/10 (Голосів: 30)
   
So_Simple 
Відео Гуртом - підтримка та поширення
Відео Гуртом - підтримка та поширення


З нами з: 03.06.10
Востаннє: 07.12.16
Повідомлень: 431

2012-10-28 20:37  
надзвичайно тупе кіно! про все і ні про що!

3/10

don pedro 
Попереджень: 1
Попереджень: 1 


З нами з: 29.06.11
Востаннє: 08.12.16
Повідомлень: 8763

2012-10-28 20:40  
Кіно цілком дурнувате. Не дивитися.
bodianchik 
Новенький


З нами з: 10.11.12
Востаннє: 07.12.16
Повідомлень: 20

2012-11-14 21:30  
Дуже сподобалось... круте кіно

Додано через 12 хвилин 1 секунду:

спочатку швидко промотав і також склалась думка дурновате типове кіно, але подивившись повністю я змінив сою думку!

mopsik911 
Новенький


З нами з: 02.07.12
Востаннє: 02.12.14
Повідомлень: 1

2012-11-15 11:47  
мені дуже сподобалось !!!
john8519 
Новенький


З нами з: 17.11.12
Востаннє: 30.06.16
Повідомлень: 1

2012-11-18 14:24  
фільм УГ, не ведіться на постановку трюків, бо це і так не врятує цей фільм від правдивої критики та невподобань!!!
Nashko 
Новенький


З нами з: 14.11.12
Востаннє: 30.11.16
Повідомлень: 1

2013-02-23 17:48  
мені фільм сподобався, доволі крутий!
TurbolenT 
Новенький


З нами з: 13.12.11
Востаннє: 06.12.16
Повідомлень: 24

2013-03-03 16:07  
Я так ще ніколи не ржав дивлячись фільм "жахів". Коня за ногу, об поличку голову відрубати, рейси руками стягувати. Wide grin
Ваш часовий пояс: GMT + 2 Години

Нова тема   Відповісти