Завантажити та скачати торренти українською


Обличчя у натовпі / Faces in the Crowd (2011) 1080 Ukr/Eng

Нові коментарі

Нова тема   Відповісти
Автор Повідомлення
NoFear729 
Новенький


З нами з: 25.09.11
Востаннє: 05.12.16
Повідомлень: 15

2012-10-14 21:36  
Обличчя у натовпі / Faces in the Crowd (2011) 1080 Ukr/Eng

Обличчя у натовпі / Faces in the Crowd (2011) 1080 Ukr/Eng


Жанр: трилер
Країна: США, Канада, Франція



Кіностудія / кінокомпанія: Forecast Pictures
Режисер: Жюльен Манья
Актори: Мілла Йовович, Сара Уейн Келліс, Джуліан МакМехон, Майкл Шенкс, Адам Харінгтон, Сандрін Холт, Валентина Варгас, Маріанна Фейтфулл, Ентоні Лемке, Нельсен Леннарсо

Сюжет:
Фільм оповідає про страшну трагедію, яка сталася в житті молодої жінки Анни. Після нападу серійного вбивці, вона дивом залишилася жива і виявилася єдиною свідком який бачив маніяка. Однак складна травма голови зробила її фактично безпорадною. Вона зовсім не запам'ятовує обличчя людей, і як тільки вони зникають з її поля зору, особи стираються з її пам'яті назавжди. Скориставшись цим рідкісним недугою Анни, маніяк почав з нею диявольську гру ...


Тривалість: 1:42:32
Якість:
Відео:
кодек:
розмір кадру: 1920 х 800
бітрейт: 5714 кб/с

Аудіо # 1:
мова: українська
переклад: багатоголосий закадровий
кодек: 2.0
бітрейт: 192 кб/с

Аудіо # 2:
мова: англійська
переклад: оригінал
кодек: 5.1
бітрейт: 384 кб/с

Джерело озвучення:
MediaInfo
E:\Faces.in.the.Crowd.2011...1080p.mkv
General
Unique ID : 191367707773461203068528180482606859178 (0x8FF81472F2A86F0CB9764B01EF8383AA)
Complete name : E:\Faces.in.the.Crowd.2011...1080p.mkv
Format : Matroska
Format version : Version 2
File size : 4.51 GiB
Duration : 1h 42mn
Overall bit rate : 6 290 Kbps
Encoded date : UTC 2012-10-14 19:20:05
Writing application : mkvmerge v5.7.0 ('The Whirlwind') built on Jul 8 2012 20:08:51
Writing library : libebml v1.2.3 + libmatroska v1.3.0
Video #1
ID : 1
Format : AVC
Format/Info : Advanced Video Codec
Format profile : [email protected]
Format settings, CABAC : Yes
Format settings, ReFrames : 2 frames
Codec ID : V_MPEG4/ISO/AVC
Duration : 1h 42mn
Bit rate : 5 714 Kbps
Width : 1 920 pixels
Height : 800 pixels
Display aspect ratio : 2.40:1
Frame rate mode : Variable
Frame rate : 23.976 fps
Color space : YUV
Chroma subsampling : 4:2:0
Bit depth : 8 bits
Scan type : Progressive
Bits/(Pixel*Frame) : 0.155
Stream size : 4.00 GiB (89%)
Writing library : core 112 r1834 a51816a
Encoding settings : cabac=1 / ref=2 / deblock=1:0:0 / analyse=0x3:0x113 / me=hex / subme=6 / psy=1 / psy_rd=1.00:0.00 / mixed_ref=0 / me_range=16 / chroma_me=1 / trellis=0 / 8x8dct=1 / cqm=0 / deadzone=21,11 / fast_pskip=1 / chroma_qp_offset=-2 / threads=4 / sliced_threads=0 / nr=0 / decimate=1 / interlaced=0 / constrained_intra=0 / bframes=3 / b_pyramid=0 / b_adapt=1 / b_bias=0 / direct=3 / weightb=1 / open_gop=0 / weightp=2 / keyint=250 / keyint_min=25 / scenecut=40 / intra_refresh=0 / rc_lookahead=40 / rc=2pass / mbtree=1 / bitrate=5714 / ratetol=1.0 / qcomp=0.60 / qpmin=10 / qpmax=51 / qpstep=4 / cplxblur=20.0 / qblur=0.5 / ip_ratio=1.41 / aq=1:1.00
Language : English
Audio #2
ID : 2
Format : AC-3
Format/Info : Audio Coding 3
Mode extension : CM (complete main)
Codec ID : A_AC3
Duration : 1h 42mn
Bit rate mode : Constant
Bit rate : 192 Kbps
Channel(s) : 2 channels
Channel positions : Front: L R
Sampling rate : 48.0 KHz
Bit depth : 16 bits
Compression mode : Lossy
Stream size : 141 MiB (3%)
Language : Ukrainian
Audio #3
ID : 3
Format : AC-3
Format/Info : Audio Coding 3
Mode extension : CM (complete main)
Codec ID : A_AC3
Duration : 1h 42mn
Bit rate mode : Constant
Bit rate : 384 Kbps
Channel(s) : 6 channels
Channel positions : Front: L C R, Side: L R, LFE
Sampling rate : 48.0 KHz
Bit depth : 16 bits
Compression mode : Lossy
Stream size : 282 MiB (6%)
Language : English
Скріншоти




Джерело: &
Особиста оцінка: 0 - не дивився


 Трекер:    Зареєстрований   

Завантажити / скачати фільм українською



відео для новачків



 Зареєстрований:   2012-10-28 22:26
 Розмір:   4.51 GB 
 Оцінка фільму:   7.5/10 (Голосів: 12)
   
Інші релізи
Leshchyshyn 
VIP


З нами з: 20.07.09
Востаннє: 02.12.16
Повідомлень: 470

2012-11-25 23:24  
Дуже сподобався фільм. Весь час підозрював різних людей, а розв'язка дещо несподівана хоч і натяків на те було достатньо щоб здогадатись, одним словом, рекомендую!!!
Avalonag 
Новенький


З нами з: 03.02.13
Востаннє: 05.12.16
Повідомлень: 24

2013-07-19 15:55  
Цитата:
Скориставшись цим рідкісним недугою

waldi-hurtom 
VIP


З нами з: 07.10.12
Востаннє: 05.12.16
Повідомлень: 611

2013-08-12 18:51  
Для фанатів жанру. Як на мене фільм тягне на 4 з 10, дуже посередній, нічим не зачепив. На один раз, коли більше нічого робити.
Ваш часовий пояс: GMT + 2 Години

Нова тема   Відповісти