Завантажити та скачати торренти українською


Щелепи в 3D / Shark Night 3D (2011) 720р 2xUkr/Eng | Sub Eng

Нові коментарі

Нова тема   Відповісти
Автор Повідомлення
hellforces 
VIP


З нами з: 25.06.08
Востаннє: 11.11.16
Повідомлень: 1556

2012-10-14 18:36  
Щелепи в 3D / Shark Night 3D (2011) 720р 2xUkr/Eng | Sub Eng

Щелепи в 3D / Shark Night 3D (2011) 720р 2xUkr/Eng | Sub Eng


Жанр: жахи, трилер
Країна: США



Режисер: Девід Р. Елліс / David R. Ellis
Актори: Сара Пакстон / Sara Paxton, Дастін Мілліган / Dustin Milligan, Кріс Кармак / Chris Carmack, Катарін МакФі / Katharine McPhee, Джоел Девід Мур / Joel David Moore, Донал Лог / Donal Logue, Джошуа Леонард / Joshua Leonard, Сінкуа Уоллс / Sinqua Walls, Аліса Діас / Alyssa Diaz, Кріс Зілка / Chris Zylka, Джиммі Лі мол. / Jimmy Lee Jr., Деймон Ліпарі / Damon Lipari, Крістін Бентлі / Christine Bently, Келлі Срі / Kelly Sry, Тайлер Брайан / Tyler Bryan та ін.

Сюжет:
Сюжет фільму обертається навколо групи підлітків, учнів коледжу, які проводять свої вихідні на великому озері. Незабаром вони виявляють, що зубаста небезпека ховається на глибині...

Тривалість: 01:30:31
Якість: 720р
Відео:
кодек:
розмір кадру: 1280x694
бітрейт: ~6436 кб/с

Аудіо # 1:
мова: українська
переклад: багатоголосий закадровий
кодек: 5.1
бітрейт: ~384 кб/с

Джерело озвучення:
Щелепи в 3D / Shark Night 3D (2011) 720р 2xUkr/Eng | Sub Eng

Аудіо # 2:
мова: українська
переклад: багатоголосий закадровий
кодек: 2.0
бітрейт: ~192 кб/с

Джерело озвучення:
Щелепи в 3D / Shark Night 3D (2011) 720р 2xUkr/Eng | Sub Eng

Аудіо # 3:
мова: англійська
переклад: оригінал
кодек: 5.1
бітрейт: ~1536 кб/с

Субтитри:
мова: англійська
тип: вбудовані (м'які)
формат: *.srt

MediaInfo
General
Unique ID : 187933726971327237894300148030332017933 (0x8D62B81FAEBBEC5398251B9CE0511D0D)
Complete name : D:\Shark Night 3D (2011) [2xUkr & Eng] 720р [Hurtom].mkv
Format : Matroska
Format version : Version 2
File size : 5.50 GiB
Duration : 1h 30mn
Overall bit rate : 8 695 Kbps
Movie name : Shark Night 3D (2011)
Encoded date : UTC 2012-10-14 14:32:07
Writing application : mkvmerge v5.8.0 ('No Sleep / Pillow') built on Sep 2 2012 15:37:04
Writing library : libebml v1.2.3 + libmatroska v1.3.0

Video
ID : 1
Format : AVC
Format/Info : Advanced Video Codec
Format profile : [email protected]
Format settings, CABAC : Yes
Format settings, ReFrames : 9 frames
Codec ID : V_MPEG4/ISO/AVC
Bit rate : 6 436 Kbps
Width : 1 280 pixels
Height : 694 pixels
Display aspect ratio : 1.85:1
Frame rate mode : Variable
Original frame rate : 23.976 fps
Color space : YUV
Chroma subsampling : 4:2:0
Bit depth : 8 bits
Scan type : Progressive
Writing library : core 120 r2120 0c7dab9
Encoding settings : cabac=1 / ref=9 / deblock=1:-3:-3 / analyse=0x3:0x113 / me=umh / subme=9 / psy=1 / psy_rd=0.80:0.00 / mixed_ref=1 / me_range=16 / chroma_me=1 / trellis=2 / 8x8dct=1 / cqm=0 / deadzone=21,11 / fast_pskip=0 / chroma_qp_offset=-2 / threads=12 / sliced_threads=0 / nr=0 / decimate=0 / interlaced=0 / bluray_compat=0 / constrained_intra=0 / bframes=7 / b_pyramid=2 / b_adapt=2 / b_bias=0 / direct=3 / weightb=1 / open_gop=0 / weightp=2 / keyint=250 / keyint_min=23 / scenecut=40 / intra_refresh=0 / rc=crf / mbtree=0 / crf=17.0 / qcomp=0.60 / qpmin=0 / qpmax=69 / qpstep=4 / ip_ratio=1.40 / pb_ratio=1.30 / aq=1:0.80
Language : English
Default : No
Forced : No
Matrix coefficients : BT.709

Audio #1
ID : 2
Format : AC-3
Format/Info : Audio Coding 3
Mode extension : CM (complete main)
Format settings, Endianness : Big
Codec ID : A_AC3
Duration : 1h 30mn
Bit rate mode : Constant
Bit rate : 384 Kbps
Channel(s) : 6 channels
Channel positions : Front: L C R, Side: L R, LFE
Sampling rate : 48.0 KHz
Bit depth : 16 bits
Compression mode : Lossy
Stream size : 249 MiB (4%)
Title : Багатоголосий (DVD)
Language : Ukrainian
Default : No
Forced : No

Audio #2
ID : 3
Format : AC-3
Format/Info : Audio Coding 3
Mode extension : CM (complete main)
Format settings, Endianness : Big
Codec ID : A_AC3
Duration : 1h 30mn
Bit rate mode : Constant
Bit rate : 192 Kbps
Channel(s) : 2 channels
Channel positions : Front: L R
Sampling rate : 48.0 KHz
Bit depth : 16 bits
Compression mode : Lossy
Stream size : 124 MiB (2%)
Title : Багатоголосий (1+1)
Language : Ukrainian
Default : No
Forced : No

Audio #3
ID : 4
Format :
Format/Info : Digital Theater Systems
Codec ID : A_DTS
Duration : 1h 30mn
Bit rate mode : Constant
Bit rate : 1 510 Kbps
Channel(s) : 6 channels
Channel positions : Front: L C R, Side: L R, LFE
Sampling rate : 48.0 KHz
Bit depth : 24 bits
Compression mode : Lossy
Delay relative to video : 11ms
Stream size : 978 MiB (17%)
Title : Оригінал
Language : English
Default : No
Forced : No

Text
ID : 5
Format : UTF-8
Codec ID : S_TEXT/UTF8
Codec ID/Info : UTF-8 Plain Text
Language : English
Default : No
Forced : No

Menu
00:00:00.000 : en:00:00:00.000
00:03:59.614 : en:00:03:59.614
00:05:44.678 : en:00:05:44.678
00:11:19.679 : en:00:11:19.679
00:17:24.752 : en:00:17:24.752
00:20:47.997 : en:00:20:47.997
00:25:39.246 : en:00:25:39.246
00:31:02.319 : en:00:31:02.319
00:32:52.554 : en:00:32:52.554
00:35:49.272 : en:00:35:49.272
00:40:43.691 : en:00:40:43.691
00:42:32.633 : en:00:42:32.633
00:45:50.456 : en:00:45:50.456
00:50:54.510 : en:00:50:54.510
00:53:21.698 : en:00:53:21.698
00:56:55.621 : en:00:56:55.621
00:59:36.656 : en:00:59:36.656
01:04:31.701 : en:01:04:31.701
01:07:31.839 : en:01:07:31.839
01:11:39.504 : en:01:11:39.504
01:14:33.844 : en:01:14:33.844
01:16:56.111 : en:01:16:56.111
01:19:18.420 : en:01:19:18.420
01:20:39.376 : en:01:20:39.376
Скріншоти:











Наданий ліцензійний звук: muestro, Konfucius
Обробка і запис звукової доріжки від 1+1 і зведення ліцензійного DVD звуку під BD: karvai0


 Трекер:    Зареєстрований   

Завантажити / скачати фільм українською



відео для новачків



 Зареєстрований:   2012-10-14 18:47
 Розмір:   5.5 GB 
 Оцінка фільму:   9/10 (Голосів: 6)
   
Інші релізи
   Щелепи в 3D / Shark Night 3D (2011) 2xUkr/Eng | Sub Eng karvai0  3 / 0   1.82 GB   2012-10-12 13:22 
hellforces 
VIP


З нами з: 25.06.08
Востаннє: 11.11.16
Повідомлень: 1556

2012-10-14 18:48  
досить не погане кіно 8\10
oleg.plavkov 
Відео Гуртом - фільмокрай
Відео Гуртом - фільмокрай


З нами з: 04.01.12
Востаннє: 26.11.16
Повідомлень: 304

2012-10-14 19:22  
Постер твій?
hellforces 
VIP


З нами з: 25.06.08
Востаннє: 11.11.16
Повідомлень: 1556

2012-10-14 19:40  
oleg.plavkov
ні, це мабуть ліцензійний

hellforces 
VIP


З нами з: 25.06.08
Востаннє: 11.11.16
Повідомлень: 1556

2012-10-17 10:06  
на роздачі стою останній день
The_Marlboro 
Відео Гуртом - субтитрування
Відео Гуртом - субтитрування


З нами з: 23.05.10
Востаннє: 02.12.16
Повідомлень: 2854

2012-10-17 17:52  
hellforces написано:
на роздачі стою останній день
Знущаєшся? навіщо реліз тоді робив? Почекай, будь ласка, поки я викачаю.
hellforces 
VIP


З нами з: 25.06.08
Востаннє: 11.11.16
Повідомлень: 1556

2012-10-17 20:44  
TheMarlboro
ок. ще постою

ALFROMEDA 
Відео Гуртом - підтримка та поширення
Відео Гуртом - підтримка та поширення


З нами з: 09.07.12
Востаннє: 03.12.16
Повідомлень: 210

2014-05-31 21:44  
роздайте хтось (завтра-післязавтра)
Ваш часовий пояс: GMT + 2 Години

Нова тема   Відповісти