Завантажити та скачати торренти українською


Автостопом по галактиці / The Hitchhiker's Guide to the Galaxy (2005) 720p Ukr/Eng | Sub Eng

Нові коментарі

Нова тема   Відповісти
Автор Повідомлення
chaoscor 
Свій


З нами з: 17.10.10
Востаннє: 03.12.16
Повідомлень: 73

2012-10-14 11:59  
Автостопом по галактиці / The Hitchhiker's Guide to the Galaxy (2005) 720p Ukr/Eng | Sub Eng

Автостопом по галактиці / The Hitchhiker's Guide to the Galaxy (2005) 720p Ukr/Eng | Sub Eng


Жанр: пригодницький, комедія, фантастика
Країна: США, Великобританія



Режисер: Гарт Дженнінгс
Актори: Білл Бейлі, Мартін Фріман, Мос Деф, Сем Рокуелл, Зої Дешанель, Білл Найї, Уорвік Девіс, Анна Ченселлор, Алан Рікман, Хелен Міррен

Сюжет:
Відважні земляни рятують свою планету від вторгнення безжальних прибульців. Без паніки - за справу взялися справжні професіонали! Це був звичайний день, який не віщував Артуру Денту нічого поганого. Та він не міг навіть уявити, що його найкращий друг виявиться інопланетянином, його будинок знесуть, а планету Земля захочуть знищити, тому що вона заважає будівництву міжгалактичної швидкісної траси. Врятований другом, Артур опиняється на космічному кораблі і відправляється в незабутню подорож у глибини всесвіту ... Космос просто переповнений невдахами. Одні тиняються по Всесвіту у пошуках «Сили» і починають міжзоряні війни, інші борознять її простори, натикаючись один на одного і влаштовуючи «війни світів». Вся справа в тому, що у цих бідолах просто немає «Автостопом по Галактиці» - єдиного путівника, необхідного невтомному дослідникові космосу. Тільки подорожуючи автостопом, можна зупинити найприкольніші зорельоти і побачити просто нереальних мешканців Всесвіту!


Тривалість: 01:48:46
Якість:
Відео:
кодек:
розмір кадру: 1280 х 534
бітрейт: 7405 кб/с

Аудіо # 1:
мова: українська
переклад: двоголосий закадровий
кодек: 2.0
бітрейт: 192 кб/с
Джерело озвучення:

доріжку взято з релізу karvai0

Аудіо # 2:
мова: англійська
переклад: оригінал
кодек: 5.1
бітрейт: 640 кб/с

Аудіо # 3:
мова: англійська
переклад: оригінал
кодек: 1.0
бітрейт: 96 кб/с
Commentary with M.Freeman\B.Nighy\N.Goldsmith\G.Jennings

Аудіо # 4:
мова: англійська
переклад: оригінал
кодек: 1.0
бітрейт: 96 кб/с
Commentary with R.Stamp\S.Solle

Субтитри:
мова: англійська
тип: програмні (м'які)
формат: *.srt
MediaInfo
D:\фільми\The Hitchhiker's Guide to the Galaxy (2005) 720p UkrEng Sub Eng .mkv
General
Complete name : D:\фільми\The Hitchhiker's Guide to the Galaxy (2005) 720p UkrEng Sub Eng .mkv
Format : Matroska
File size : 6.54 GiB
Duration : 1h 48mn
Overall bit rate : 8 602 Kbps
Encoded date : UTC 2012-10-14 12:49:35
Writing application : mkvmerge v5.2.1 ('A Far Off Place') built on Jan 2 2012 23:21:10
Writing library : libebml v1.2.3 + libmatroska v1.3.0
Video #1
ID : 1
Format : AVC
Format/Info : Advanced Video Codec
Format profile : [email protected]
Format settings, CABAC : Yes
Format settings, ReFrames : 11 frames
Muxing mode : Container [email protected]
Codec ID : V_MPEG4/ISO/AVC
Duration : 1h 48mn
Bit rate : 7 407 Kbps
Width : 1 280 pixels
Height : 534 pixels
Display aspect ratio : 2.35:1
Frame rate : 23.976 fps
Color space : YUV
Chroma subsampling : 4:2:0
Bit depth : 8 bits
Scan type : Progressive
Bits/(Pixel*Frame) : 0.452
Stream size : 5.63 GiB (86%)
Writing library : core 125 r2208kMod d9d2288
Encoding settings : cabac=1 / ref=11 / deblock=1:-3:-2 / analyse=0x3:0x113 / me=umh / subme=11 / psy=1 / fade_compensate=0.00 / psy_rd=1.30:0.15 / mixed_ref=1 / me_range=48 / chroma_me=1 / trellis=2 / 8x8dct=1 / cqm=0 / deadzone=21,11 / fast_pskip=1 / chroma_qp_offset=-3 / threads=3 / lookahead_threads=1 / sliced_threads=0 / nr=0 / decimate=0 / interlaced=0 / bluray_compat=0 / constrained_intra=0 / bframes=12 / b_pyramid=2 / b_adapt=2 / b_bias=0 / direct=1 / weightb=1 / open_gop=0 / weightp=2 / keyint=250 / keyint_min=23 / scenecut=40 / intra_refresh=0 / rc=crf / mbtree=0 / crf=17.3000 / qcomp=0.60 / qpmin=0 / qpmax=69 / qpstep=4 / ip_ratio=1.40 / pb_ratio=1.25 / aq=1:0.85
Language : English
Audio #2
ID : 2
Format : AC-3
Format/Info : Audio Coding 3
Mode extension : CM (complete main)
Codec ID : A_AC3
Duration : 1h 48mn
Bit rate mode : Constant
Bit rate : 192 Kbps
Channel(s) : 2 channels
Channel positions : Front: L R
Sampling rate : 48.0 KHz
Bit depth : 16 bits
Stream size : 149 MiB (2%)
Language : Ukrainian
Audio #3
ID : 3
Format : AC-3
Format/Info : Audio Coding 3
Mode extension : CM (complete main)
Codec ID : A_AC3
Duration : 1h 48mn
Bit rate mode : Constant
Bit rate : 640 Kbps
Channel(s) : 6 channels
Channel positions : Front: L C R, Side: L R, LFE
Sampling rate : 48.0 KHz
Bit depth : 16 bits
Stream size : 498 MiB (7%)
Title : Original
Language : English
Audio #4
ID : 4
Format : AC-3
Format/Info : Audio Coding 3
Mode extension : CM (complete main)
Codec ID : A_AC3
Duration : 1h 48mn
Bit rate mode : Constant
Bit rate : 96.0 Kbps
Channel(s) : 1 channel
Channel positions : Front: C
Sampling rate : 48.0 KHz
Bit depth : 16 bits
Stream size : 74.7 MiB (1%)
Title : Commentary with M.Freeman\B.Nighy\N.Goldsmith\G.Jennings
Language : English
Audio #5
ID : 5
Format : AC-3
Format/Info : Audio Coding 3
Mode extension : CM (complete main)
Codec ID : A_AC3
Duration : 1h 48mn
Bit rate mode : Constant
Bit rate : 96.0 Kbps
Channel(s) : 1 channel
Channel positions : Front: C
Sampling rate : 48.0 KHz
Bit depth : 16 bits
Stream size : 74.7 MiB (1%)
Title : Commentary with R.Stamp\S.Solle
Language : English
Text #6
ID : 6
Format : UTF-8
Codec ID : S_TEXT/UTF8
Codec ID/Info : UTF-8 Plain Text
Language : English
Скріншоти


Джерело: &
Особиста оцінка: 10 - без зайвих вагань рекомендую всім!


 Трекер:    Зареєстрований   

Завантажити / скачати фільм українською



відео для новачків



 Зареєстрований:   2012-10-14 18:07
 Розмір:   6.54 GB 
 Оцінка фільму:   10/10 (Голосів: 21)
   
LeMorales_ZT.UA 
Новенький


З нами з: 12.05.12
Востаннє: 27.11.16
Повідомлень: 4

2012-10-14 18:58  
прикольно)
link_s 
Свій


З нами з: 04.03.10
Востаннє: 05.12.16
Повідомлень: 135

2012-10-14 19:08  
Тільки подорожуючи автостопом, можна зупинити самі ульотні зорельоти і побачити самих нереальних мешканців Всесвіту!
_______________
варто змінити
нема в українській мові порівняння "самий кращий, нереальний"...а про слово "ульотний" і говорити нема чого))
а за фільм величезне спасибі, книжку читав на одному диханні!!

Ваш часовий пояс: GMT + 2 Години

Нова тема   Відповісти