Завантажити та скачати торренти українською


Павло Доскоч - Батькова криниця (2011) [FLAC] | Pop

Нові коментарі

Нова тема   Відповісти
Автор Повідомлення
ssTAss 
Модератор музики


З нами з: 05.07.08
Востаннє: 09.12.16
Повідомлень: 10948

2012-10-13 23:41  
Павло Доскоч - Батькова криниця (2011) [FLAC] | Pop

Павло Доскоч - Батькова криниця (2011) [FLAC] | Pop


Стиль: Pop
Країна, місто: Україна, Хоростків (Тернопільська обл.)
Сайти: Офіційний сайт
Видавець: GroLis
Виконавці:
Павло Доскоч
Пісні:
    01 - Батькова криниця
    02 - Весілля на Волині
    03 - Океан
    04 - У вишневому саду
    05 - Осшнній ключ
    06 - Прощавай останнє кохання
    07 - Не забувай
    08 - Орхідея
    09 - Стежка до дому
    10 - Пшениця колоситься
log
Exact Audio Copy V1.0 beta 3 from 29. August 2011

Отчёт EAC об извлечении, выполненном 28. сентября 2012, 19:53

Павло Доскоч / Батькова криниця

Дисковод: HL-DT-STDVD-RAM GH22NP21 Adapter: 0 ID: 0

Режим чтения : Достоверность
Использование точного потока : Да
Отключение кэша аудио : Да
Использование указателей C2 : Нет

Коррекция смещения при чтении : 102
Способность читать области Lead-in и Lead-out : Нет
Заполнение пропущенных сэмплов тишиной : Да
Удаление блоков с тишиной в начале и конце : Нет
При вычислениях CRC использовались нулевые сэмплы : Да
Интерфейс : Встроенный Win32-интерфейс для Win NT/2000

Выходной формат : Пользовательский кодировщик
Выбранный битрейт : 1024 kBit/s
Качество : Высокий
Добавление ID3-тега : Нет
Утилита сжатия : C:\Program Files\Exact Audio Copy\FLAC\FLAC.EXE
Дополнительные параметры : -8 -V -T "ARTIST=%artist%" -T "TITLE=%title%" -T "ALBUM=%albumtitle%" -T "DATE=%year%" -T "TRACKNUMBER=%tracknr%" -T "GENRE=%genre%" -T "COMMENT=%comment%" %hascover%--picture="%coverfile%"%hascover% %source% -o %dest%

TOC извлечённого CD

Трек | Старт | Длительность | Начальный сектор | Конечный сектор
---------------------------------------------------------------------
1 | 0:00.00 | 4:11.31 | 0 | 18855
2 | 4:11.31 | 4:09.06 | 18856 | 37536
3 | 8:20.37 | 5:37.28 | 37537 | 62839
4 | 13:57.65 | 3:46.69 | 62840 | 79858
5 | 17:44.59 | 5:17.33 | 79859 | 103666
6 | 23:02.17 | 5:03.14 | 103667 | 126405
7 | 28:05.31 | 4:38.33 | 126406 | 147288
8 | 32:43.64 | 4:01.59 | 147289 | 165422
9 | 36:45.48 | 5:29.69 | 165423 | 190166
10 | 42:15.42 | 3:52.16 | 190167 | 207582

Характеристики диапазона извлечения и сообщения об ошибках

Выбранный диапазон

Имя файла D:\Раздачи на torrents.ru\Павло Доскоч - Батькова криниця, 2010(lossless)\Павло Доскоч - Батькова криниця.wav

Пиковый уровень 89.1 %
Скорость извлечения 2.5 X
Качество диапазона 100.0 %
CRC теста 454B105D
CRC копии 454B105D
Копирование... OK

Ошибок не произошло

AccurateRip: сводка

Трек 1 отсутствует в базе данных
Трек 2 отсутствует в базе данных
Трек 3 отсутствует в базе данных
Трек 4 отсутствует в базе данных
Трек 5 отсутствует в базе данных
Трек 6 отсутствует в базе данных
Трек 7 отсутствует в базе данных
Трек 8 отсутствует в базе данных
Трек 9 отсутствует в базе данных
Трек 10 отсутствует в базе данных

Ни одного трека нет в базе AccurateRip

Конец отчёта

==== Контрольная сумма отчёта DE87B5860C37844C85C8925C40760160B5C36C5D5538F4A839E4559506688EE0 ====
fooCDtect
fooCDtect - foobar2000 + auCDtect, baralgin.

auCDtect: CD records authenticity detector, version 0.8.2
Copyright (c) 2004 Oleg Berngardt. All rights reserved.
Copyright (c) 2004 Alexander Djourik. All rights reserved.

mode: 0

===========================================
Track: 01 - Батькова криниця
Quality: CDDA 100%
===========================================
Track: 02 - Весілля на Волині
Quality: CDDA 100%
===========================================
Track: 03 - Океан
Quality: CDDA 100%
===========================================
Track: 04 - У вишневому саду
Quality: CDDA 100%
===========================================
Track: 05 - Осшнній ключ
Quality: CDDA 99%
===========================================
Track: 06 - Прощавай останнє кохання
Quality: CDDA 100%
===========================================
Track: 07 - Не забувай
Quality: CDDA 100%
===========================================
Track: 08 - Орхідея
Quality: CDDA 100%
===========================================
Track: 09 - Стежка до дому
Quality: CDDA 100%
===========================================
Track: 10 - Пшениця колоситься
Quality: CDDA 100%
===========================================
Тривалість: 00:46:08
Мова: українська
Аудіо-кодек: FLAC
Бітрейт: 1046 кб/с
Джерело: рутрекер
Додаткова інформація:
Пісні на слова Василя Богачука співає Павло Доскоч


Якщо Ви справді бажаєте підтримати українське - після прослуховування, якщо музика вам сподобалась,
придбайте ліцензійний диск.
Підтримаймо вітчизняних виконавців!


Срібний реліз (на рейтинг впливає 50% завантаженого)
 Трекер:    Зареєстрований   

Завантажити / скачати українську музику



відео для новачків



 Зареєстрований:   2012-10-13 23:41
 Розмір:   357 MB 
 Оцінка музики:   8.1/10 (Голосів: 14)
   
tarakan87 
Новенький


З нами з: 27.05.12
Востаннє: 04.12.16
Повідомлень: 12

2012-10-14 00:23  
Більше Павла на трекері! Happy
Допоможу з роздачею.

matienko8 
Новенький


З нами з: 21.04.11
Востаннє: 25.11.15
Повідомлень: 2

2014-01-23 21:08  
а 2013 є в кого?
Ваш часовий пояс: GMT + 2 Години

Нова тема   Відповісти