Завантажити та скачати торренти українською


Ключ від усіх дверей / The Skeleton Key (2005) 720р Ukr/Eng | Sub Eng

Нові коментарі

Нова тема   Відповісти
Автор Повідомлення
hellforces 
VIP


З нами з: 25.06.08
Востаннє: 11.11.16
Повідомлень: 1556

2012-10-13 21:18  
Ключ від усіх дверей / The Skeleton Key (2005) 720р Ukr/Eng | Sub Eng

Ключ від усіх дверей / The Skeleton Key (2005) 720р Ukr/Eng | Sub Eng


Жанр: драма, жахи, детектив, трилер
Країна: США, Німеччина



Режисер: Ієн Софтлі / Iain Softley
Актори: Кейт Хадсон / Kate Hudson, Джена Ровлендс / Gena Rowlands, Джон Герт / John Hurt, Пітер Сарсгаард / Peter Sarsgaard, Дої Браянт / Joy Bryant, Максін Барнетт / Maxine Barnett, Фанлоні Р. Харріс / Fahnlohnee R. Harris, Маріон Зінсер / Marion Zinser, Денін Тайлер / Deneen Tyler, Енн Далрімпле / Ann Dalrymple, Трул М. Маркус / Trula M. Marcus, Тоня Статен / Tonya Staten, Томас Ускалі / Thomas Uskali, Джен Апґар / Jen Apgar, Форрест Ландіс / Forrest Landis та ін.

Сюжет:
25-річна Керолайн Елліс влаштовується працювати доглядальницею до літнього інваліда Бену Деверо, власника величезного особняка неподалік від Луїзіани. Його дружина Вайолет вручає дівчині універсальний ключ від усіх дверей у будинку.
Одного разу Керолайн виявляє секретну кімнату, розташовану на горищі з масою містичних предметів. Господиня стверджує, що речі належать колишнім власникам, які займалися чорною магією. Незабаром Керолайн стає свідком досить дивних і непояснених подій і вирішує, у що б то не стало, розгадати секрет таємничої кімнати...


Тривалість: 01:43:57
Якість: 720р
Відео:
кодек:
розмір кадру: 1280x544
бітрейт: ~5003 кб/с

Аудіо # 1:
мова: українська
переклад: багатоголосий закадровий
кодек: 2.0
бітрейт: ~192 кб/с

Аудіо # 2:
мова: англійська
переклад: оригінал
кодек: 5.1
бітрейт: ~448 кб/с

Джерело озвучення:
Ключ від усіх дверей / The Skeleton Key (2005) 720р Ukr/Eng | Sub Eng

Субтитри:
мова: англійська
тип: вбудовані (м'які)
формат: *.srt

MediaInfo
General
Unique ID : 211798893633831894423700395479916524825 (0x9F56FBAF4F069EB9B51B2547F6B2B519)
Complete name : D:\Фільми\The Skeleton Key (2005 ) [Ukr & Eng] 720p [Hurtom].mkv
Format : Matroska
Format version : Version 2
File size : 4.18 GiB
Duration : 1h 43mn
Overall bit rate mode : Variable
Overall bit rate : 5 758 Kbps
Movie name : The Skeleton Key (2005)
Encoded date : UTC 2012-10-14 07:51:14
Writing application : mkvmerge v5.8.0 ('No Sleep / Pillow') built on Sep 2 2012 15:37:04
Writing library : libebml v1.2.3 + libmatroska v1.3.0

Video
ID : 1
Format : AVC
Format/Info : Advanced Video Codec
Format profile : [email protected]
Format settings, CABAC : Yes
Format settings, ReFrames : 6 frames
Codec ID : V_MPEG4/ISO/AVC
Duration : 1h 43mn
Bit rate mode : Variable
Bit rate : 5 003 Kbps
Maximum bit rate : 5 117 Kbps
Width : 1 280 pixels
Height : 544 pixels
Display aspect ratio : 2.35:1
Frame rate mode : Constant
Frame rate : 23.976 fps
Color space : YUV
Chroma subsampling : 4:2:0
Bit depth : 8 bits
Scan type : Progressive
Bits/(Pixel*Frame) : 0.300
Stream size : 3.63 GiB (87%)
Default : No
Forced : No

Audio #1
ID : 2
Format : AC-3
Format/Info : Audio Coding 3
Mode extension : CM (complete main)
Format settings, Endianness : Big
Codec ID : A_AC3
Duration : 1h 43mn
Bit rate mode : Constant
Bit rate : 192 Kbps
Channel(s) : 2 channels
Channel positions : Front: L R
Sampling rate : 48.0 KHz
Bit depth : 16 bits
Compression mode : Lossy
Stream size : 143 MiB (3%)
Title : Багатоголосий
Language : Ukrainian
Default : No
Forced : No

Audio #2
ID : 3
Format : AC-3
Format/Info : Audio Coding 3
Mode extension : CM (complete main)
Format settings, Endianness : Big
Codec ID : A_AC3
Duration : 1h 43mn
Bit rate mode : Constant
Bit rate : 448 Kbps
Channel(s) : 6 channels
Channel positions : Front: L C R, Side: L R, LFE
Sampling rate : 48.0 KHz
Bit depth : 16 bits
Compression mode : Lossy
Stream size : 333 MiB (8%)
Title : Original
Language : English
Default : No
Forced : No

Text
ID : 4
Format : UTF-8
Codec ID : S_TEXT/UTF8
Codec ID/Info : UTF-8 Plain Text
Language : English
Default : No
Forced : No
Скріншоти:











Наданий сирий звук: xslim
Обробка звукової доріжки: karvai0


Ключ від усіх дверей / The Skeleton Key (2005) 720р Ukr/Eng | Sub Eng


 Трекер:    Зареєстрований   

Завантажити / скачати фільм українською



відео для новачків



 Зареєстрований:   2012-10-14 09:59
 Розмір:   4.18 GB 
 Оцінка фільму:   9.8/10 (Голосів: 20)
   
Інші релізи
taras1994 
Почесний оцифрувальник літератури


З нами з: 23.03.12
Востаннє: 30.11.16
Повідомлень: 5096

2012-10-13 21:40  
hellforces написано:
Muxing mode : Header stripping

має бути вимкнено

hellforces 
VIP


З нами з: 25.06.08
Востаннє: 11.11.16
Повідомлень: 1556

2012-10-13 22:57  
taras1994
я не знаю, що це

DiGen 
Модератор HD та координатор Команди HD
Модератор HD та координатор Команди HD


З нами з: 12.11.09
Востаннє: 24.06.13
Повідомлень: 1452

2012-10-14 00:42  
Ось http://toloka.to/t20052 тут є п.3, а біля нього лінк на необхідну інформацію
hellforces 
VIP


З нами з: 25.06.08
Востаннє: 11.11.16
Повідомлень: 1556

2012-10-16 18:52  
хороше кіно 8\10
braveboy 
Відео Гуртом - команда HD
Відео Гуртом - команда HD


З нами з: 15.06.10
Востаннє: 29.10.16
Повідомлень: 958

2012-10-19 05:39  
виправ
hellforces написано:
бітрейт: ~5002 кб/с


hellforces написано:
MediaInfo
Bit rate : 5 003 Kbps

taras1994 
Почесний оцифрувальник літератури


З нами з: 23.03.12
Востаннє: 30.11.16
Повідомлень: 5096

2012-10-20 17:09  
Переселення душ, в нові тіла. Ідея фільму дуже цікаво реалізована, а завершення найцікавіше. Переселилася чи не пересилилася? Ось питання, так виглядає, що переселилася.
famous37 
Відео Гуртом - фільмокрай
Відео Гуртом - фільмокрай


З нами з: 16.11.08
Востаннє: 11.12.16
Повідомлень: 556

2015-08-17 22:45  
Цікавий фільм)
Ua.bos_01 
VIP


З нами з: 22.06.15
Востаннє: 06.12.16
Повідомлень: 1291

2015-08-18 09:51  
Досить непоганий фільм жахів. Сюжет присутній, зміст ніби теж нічого. Хороша гра головної героїні. Несподівана розв'язка. Раджу до перегляду.
MrRyanCooper 
VIP


З нами з: 23.08.12
Востаннє: 10.12.16
Повідомлень: 282

2015-11-13 21:15  
Канал "Україна" неважно озвучує, може хто запише з НЛО?
Lmkk 
Новенький


З нами з: 04.07.09
Востаннє: 09.12.16
Повідомлень: 2

2016-08-15 14:50  
Будь ласка станьте на роздачу. Буду дуже вдячний)
Ваш часовий пояс: GMT + 2 Години

Нова тема   Відповісти