Завантажити та скачати торренти українською


Служителі закону / U.S. Marshals (1998) 720p 3xUkr/Eng

Нові коментарі

Нова тема   Відповісти
Автор Повідомлення
SuperContik 
VIP


З нами з: 25.02.08
Востаннє: 13.09.16
Повідомлень: 332

2012-10-09 20:56  
Служителі закону / U.S. Marshals (1998) 720p 3xUkr/Eng

Служителі закону / U.S. Marshals (1998) 720p 3xUkr/Eng


«Поліцейський, якого не зупинити, повертається. Але на цей раз він переслідує не тільки втікача.»


Жанр: трилер, бойовик
Країна: США



Кіностудія / кінокомпанія: Warner Brothers
Режисер: Стюарт Бейрд / Stuart Baird
Актори: Томмі Лі Джонс / Tommy Lee Jones, Ірен Жакоб /Irene Jacob/, Джо Пантоліано /Joe Pantoliano/, Веслі Снайпс / Wesley Snipes, Кейт Нелліган /Kate Nelligan/, Роберт Дауні-молодший / Robert Downey Jr., Майкл Пол Чан /Michael Paul Chan/, Том Вуд /Tom Wood/, Джонні Лі Девенпорт /Johnny Lee Davenport/, Ла Танья Річардсон /La Tanya Richardson/, Патрік Малахайд /Patrick Malahide/, Даніель Ройбак /Daniel Roebuck/

Сюжет:
Тюремний літак, потерпів аварію і здійснює вимушену посадку. Скориставшись ситуацією, з-під варти тікає особливо небезпечний вязень — секретний агент в минулому, звинувачений у вбивстві двох інших агентів. Але не тільки поліція і група Джерарда йдуть по його сліду; втікач представляє інтерес і ще для декого. Він занадто багато знає, і цей дехто хоче його прибрати…


Тривалість: 02:11:07
Якість:
Відео:
кодек:
розмір кадру: 1280x720
бітрейт: 10 500 кб/с

Аудіо # 1:
мова: українська
переклад: багатоголосий закадровий
кодек: 5.1
бітрейт: 448 кб/с
ролі озвучили: Олег Стальчук, Анатолій Пашнін, Юлія Перенчук і Дмитро Гаврилов

Аудіо # 2:
мова: українська
переклад: двоголосий закадровий
кодек: 5.1
бітрейт: 448 кб/с
ролі озвучили: чоловічі ролі озвучив Юрій Гребельник

Аудіо # 3:
мова: українська
переклад: багатоголосий закадровий
кодек: 5.1
бітрейт: 488 кб/с
ролі озвучили: Владислав Пупков, Олег Лепенець і Людмила Ардельян

Аудіо # 4:
мова: англійська
переклад: оригінал
кодек: 5.1
бітрейт: 1510 кб/с

Джерело озвучення:
MediaInfo
General
Unique ID : 181863333720023055708332837266037222521 (0x88D19AA109C85D4DACCC0379DE192C79)
Complete name : E:\U.S.Marshals.1998.3xukr..5.1.eng..5.1..720p.[Hurtom].mkv
Format : Matroska
Format version : Version 2
File size : 12.3 GiB
Duration : 2h 11mn
Overall bit rate : 13.4 Mbps
Movie name : U.S. Marshals (1998) - Release for HURTOM
Encoded date : UTC 2012-10-13 08:31:42
Writing application : mkvmerge v4.3.0 ('Escape from the Island') збірка від Sep 5 2010 10:30:51
Writing library : libebml v1.0.0 + libmatroska v1.0.0

Video
ID : 1
Format : AVC
Format/Info : Advanced Video Codec
Format profile : [email protected]
Format settings, CABAC : Yes
Format settings, ReFrames : 9 frames
Codec ID : V_MPEG4/ISO/AVC
Duration : 2h 11mn
Bit rate : 10.3 Mbps
Width : 1 280 pixels
Height : 720 pixels
Display aspect ratio : 16:9
Frame rate : 23.976 fps
Color space : YUV
Chroma subsampling : 4:2:0
Bit depth : 8 bits
Scan type : Progressive
Bits/(Pixel*Frame) : 0.466
Stream size : 9.43 GiB (77%)
Writing library : core 125 r2200 999b753
Encoding settings : cabac=1 / ref=9 / deblock=1:-3:-3 / analyse=0x3:0x113 / me=umh / subme=11 / psy=1 / psy_rd=1.05:0.00 / mixed_ref=1 / me_range=16 / chroma_me=1 / trellis=2 / 8x8dct=1 / cqm=0 / deadzone=21,11 / fast_pskip=0 / chroma_qp_offset=-2 / threads=18 / lookahead_threads=3 / sliced_threads=0 / nr=0 / decimate=0 / interlaced=0 / bluray_compat=0 / constrained_intra=0 / bframes=8 / b_pyramid=2 / b_adapt=2 / b_bias=0 / direct=3 / weightb=1 / open_gop=0 / weightp=2 / keyint=250 / keyint_min=23 / scenecut=40 / intra_refresh=0 / rc=crf / mbtree=0 / crf=17.0 / qcomp=0.70 / qpmin=0 / qpmax=69 / qpstep=4 / ip_ratio=1.30 / pb_ratio=1.20 / aq=1:0.80
Language : English

Audio #1
ID : 2
Format : AC-3
Format/Info : Audio Coding 3
Mode extension : CM (complete main)
Codec ID : A_AC3
Duration : 2h 11mn
Bit rate mode : Constant
Bit rate : 448 Kbps
Channel(s) : 6 channels
Channel positions : Front: L C R, Side: L R, LFE
Sampling rate : 48.0 KHz
Bit depth : 16 bits
Compression mode : Lossy
Stream size : 420 MiB (3%)
Title : Ukrainian ICTV
Language : Ukrainian

Audio #2
ID : 3
Format : AC-3
Format/Info : Audio Coding 3
Mode extension : CM (complete main)
Codec ID : A_AC3
Duration : 2h 11mn
Bit rate mode : Constant
Bit rate : 448 Kbps
Channel(s) : 6 channels
Channel positions : Front: L C R, Side: L R, LFE
Sampling rate : 48.0 KHz
Bit depth : 16 bits
Compression mode : Lossy
Stream size : 420 MiB (3%)
Title : Ukrainian Novuy
Language : Ukrainian

Audio #3
ID : 4
Format : AC-3
Format/Info : Audio Coding 3
Mode extension : CM (complete main)
Codec ID : A_AC3
Duration : 2h 11mn
Bit rate mode : Constant
Bit rate : 448 Kbps
Channel(s) : 6 channels
Channel positions : Front: L C R, Side: L R, LFE
Sampling rate : 48.0 KHz
Bit depth : 16 bits
Compression mode : Lossy
Stream size : 420 MiB (3%)
Title : Ukrainian Inter
Language : Ukrainian

Audio #4
ID : 5
Format :
Format/Info : Digital Theater Systems
Codec ID : A_DTS
Duration : 2h 11mn
Bit rate mode : Constant
Bit rate : 1 510 Kbps
Channel(s) : 6 channels
Channel positions : Front: L C R, Side: L R, LFE
Sampling rate : 48.0 KHz
Bit depth : 24 bits
Compression mode : Lossy
Delay relative to video : 11ms
Stream size : 1.38 GiB (11%)
Title : English
Language : English
Скріншоти




Джерело: &
Особиста оцінка: 10 - без зайвих вагань рекомендую всім!

Українські доріжки взяті з роздачі _oles
За постер подяка realnitro


Срібний реліз (на рейтинг впливає 50% завантаженого)
 Трекер:    Зареєстрований   

Завантажити / скачати фільм українською



відео для новачків



 Зареєстрований:   2012-10-13 11:02
 Розмір:   12.29 GB 
 Оцінка фільму:   10/10 (Голосів: 6)
   
Інші релізи
taras1994 
Почесний оцифрувальник літератури


З нами з: 23.03.12
Востаннє: 30.11.16
Повідомлень: 5096

2012-10-11 11:18  
Проблеми з роздачею, ніхто не роздає.
SuperContik 
VIP


З нами з: 25.02.08
Востаннє: 13.09.16
Повідомлень: 332

2012-10-11 16:59  
taras1994
Сідери є просто не в всіх вімкнений компютер) Я буду роздавати довго, але тільки по вечорам.

leroykendall 
Модератор HD


З нами з: 03.01.11
Востаннє: 20.11.16
Повідомлень: 749

2012-10-11 22:55  
SuperContik
Згідно правил ІІ.3 http://toloka.to/t20052 Header Stripping повинен бути вимкнутий.

taras1994 
Почесний оцифрувальник літератури


З нами з: 23.03.12
Востаннє: 30.11.16
Повідомлень: 5096

2012-10-11 23:41  
leroykendall
Muxing mode : Header stripping цей рядок вказує на наявність?

SuperContik 
VIP


З нами з: 25.02.08
Востаннє: 13.09.16
Повідомлень: 332

2012-10-12 08:38  
Я виключив його, ше спеціально в правилах дивився як це зробити.
leroykendall 
Модератор HD


З нами з: 03.01.11
Востаннє: 20.11.16
Повідомлень: 749

2012-10-12 17:38  
taras1994
Саме так. На старих програвачах цей реліз не буде відтворюватись.
SuperContik
Можливо вимкнув для відео. А треба ще і для Аудіо. Ось тут написано як це зробити: http://toloka.to/t31095

SuperContik 
VIP


З нами з: 25.02.08
Востаннє: 13.09.16
Повідомлень: 332

2012-10-12 23:11  
leroykendall
Точно, я думав що воно зразу на все вимкне. То що переробити реліз?

taras1994 
Почесний оцифрувальник літератури


З нами з: 23.03.12
Востаннє: 30.11.16
Повідомлень: 5096

2012-10-12 23:52  
SuperContik написано:
Точно, я думав що воно зразу на все вимкне. То що переробити реліз?

ТАК

leroykendall 
Модератор HD


З нами з: 03.01.11
Востаннє: 20.11.16
Повідомлень: 749

2012-10-13 08:33  
SuperContik
Так щоб він був перевірений - перероби, будь ласка.

waldi-hurtom 
VIP


З нами з: 07.10.12
Востаннє: 08.12.16
Повідомлень: 613

2012-12-14 21:34  
Добротний бойовичок. На диво маловідомий на відміну від більшості американських бойовиків. Не пригадав жодного фрагменту. Приємного перегляду! 10 балів.
Ваш часовий пояс: GMT + 2 Години

Нова тема   Відповісти